Тюрьма округа Джексон / Jackson County Jail / The Innocent Victim (Майкл Миллер / Michael Miller) [1976, США, боевик, приключения, HDTVRip] DVO (НТВ+)

Ответить на тему
Статистика раздачи [Обновить пиров]
Размер:  1.37 GB   |    Зарегистрирован:  1 год 9 месяцев   |    Скачан:  1 раз

Полного источника не было: 7 дней

 
   
 
 
 
Автор Сообщение

torrentc.info

Создавать темы 14-Фев-2017 13:48

[Цитировать]

Тюрьма округа Джексон / Jackson County Jail / The Innocent Victim
Страна: США
Жанр: боевик, приключения
Год выпуска: 1976
Продолжительность: 01:20:28
Перевод: Профессиональный (двухголосый закадровый) НТВ+
Cубтитры: нет
Режиссер: Майкл Миллер / Michael Miller
В ролях: Иветт Мимье, Томми Ли Джонс, Роберт Кэррэдин, Фредерик Кук, Северн Дарден, Ховард Хессеман
Описание: Роскошная, модно одетая работница рекламы бросает работу и изменяющего ей любовника в Лос-Анджелесе и направляется в Нью-Йорк. По дороге ее избивают несовершеннолетние хитчхайкеры, забирают машину, и она остается в каком-то сомнительном городке, как из вестерна, где ее быстро сажают в тюрьму по ложному обвинению, а там насилует тюремщик-психопат. Она убивает подонка и вынуждена пуститься в бега с грубоватым, но заботливым сокамерником, резким деревенским парнем, который ворует, потому что все бесчестны.
Сэмпл: https://yadi.sk/i/L6UTL2UofG4Cx
Доп. информация: За предоставленный рип благодарим Ledy_X
"Спасибы" просьба ПИСАТЬ в теме, тем самым вы продлеваете жизнь раздаче.
Релиз-первоисточник
Качество видео: HDTVRip [Исходник 1080i]
Формат видео: AVI
Видео: 720x384 (1.88:1), 25 fps, XviD build 50 ~2229 kbps avg, 0.32 bit/pixel
Аудио: 48 kHz, AC3 Dolby Digital, 2/0 (L,R) ch, ~192 kbps

MediaInfo

Тюрьма округа Джексон - Jackson County Jail [Rip by Ledy_X].avi
Format : AVI
Format/Info : Audio Video Interleave
File size : 1.37 GiB
Duration : 1h 20mn
Overall bit rate : 2 432 Kbps
Movie name : Тюрьма округа Джексон - Jackson County Jail [Rip by Ledy_X]
Director : Rip by Ledy_X
Writing application : VirtualDubMod 1.5.10.3 | www.virtualdub-fr.org || (build 2550/release)
Copyright : Edich2
Comment : torrentc
Video
ID : 0
Format : MPEG-4 Visual
Format profile : Advanced Simple@L5
Format settings, BVOP : 1
Format settings, QPel : No
Format settings, GMC : No warppoints
Format settings, Matrix : Default (MPEG)
Codec ID : XVID
Codec ID/Hint : XviD
Duration : 1h 20mn
Bit rate : 2 230 Kbps
Width : 720 pixels
Height : 384 pixels
Display aspect ratio : 1.85:1
Frame rate : 25.000 fps
Color space : YUV
Chroma subsampling : 4:2:0
Bit depth : 8 bits
Scan type : Progressive
Compression mode : Lossy
Bits/(Pixel*Frame) : 0.323
Stream size : 1.25 GiB (92%)
Writing library : XviD 1.2.1 (UTC 2008-12-04)
Audio
ID : 1
Format : AC-3
Format/Info : Audio Coding 3
Mode extension : CM (complete main)
Format settings, Endianness : Big
Codec ID : 2000
Duration : 1h 20mn
Bit rate mode : Constant
Bit rate : 192 Kbps
Channel(s) : 2 channels
Channel positions : Front: L R
Sampling rate : 48.0 KHz
Bit depth : 16 bits
Compression mode : Lossy
Stream size : 111 MiB (8%)
Alignment : Split accross interleaves
Interleave, duration : 40 ms (1.00 video frame)
Interleave, preload duration : 500 ms

Скриншоты




[torrentc.info]_torrent-4962512.torrent
Торрент: Зарегистрирован ·  [ 2017-02-14 13:48 ] ·  88ac1f3fe56143faab692843b8276be89943cc18

14 KB

Статус: проверено
Скачан: 1 раз
Размер: 1.37 GB
Оценка: 
(Голосов: 0)
Сказали спасибо: 0  Спасибо
Похожие темы
[Профиль]    [ЛС]
Показать сообщения:    
Ответить на тему

Текущее время: Сегодня 17:44

Часовой пояс: GMT + 7



Вы не можете начинать темы
Вы не можете отвечать на сообщения
Вы не можете редактировать свои сообщения
Вы не можете удалять свои сообщения
Вы не можете голосовать в опросах
Вы не можете прикреплять файлы к сообщениям
Вы можете скачивать файлы