Самоволка / Львиное сердце / A.W.O.L. / Lionheart (Шелдон Леттич / Sheldon Lettich) [1990, США, боевик, драма, спорт, BDRip-AVC] MVO (РТР) + DVO (Twister) + Sub (Rus, Eng) + Original Eng

Ответить на тему
Статистика раздачи [Обновить пиров]
Размер:  2.9 GB   |    Зарегистрирован:  1 год 9 месяцев   |    Скачан:  0 раз

Полного источника не было: Никогда

 
   
 
 
 
Автор Сообщение

torrentc.info

Создавать темы 14-Фев-2017 13:48

[Цитировать]

Самоволка / Львиное сердце / A.W.O.L. / Lionheart
Страна: США
Жанр: боевик, драма, спорт
Год выпуска: 1990
Продолжительность: 01:45:08
Перевод 1: Профессиональный (многоголосый закадровый)
Перевод 2: Профессиональный (двухголосый закадровый) Twister
Cубтитры: русские, английские
Оригинальная аудиодорожка: английский
Режиссер: Шелдон Леттич / Sheldon Lettich
В ролях: Жан-Клод Ван Дамм, Харрисон Пейдж, Дебора Реннард, Лиза Пеликан, Эшли Джонсон, Брайан Томпсон, Войо Горич, Мишель Кисси, Джордж МакДэниэл, Эрик Карсон, Эш Эдамс, Уильям Т. Амос, Роз Босли, Дэннис Ракер, Билли Блэнкс
Описание: Узнав, что его брат в Лос-Анджелесе серьезно ранен, Леон Готье дезертирует из французского иностранного легиона, базирующегося в отдаленном районе Северной Африки.
Скрываясь от двух боевиков-легионеров, которым дан приказ вернуть его любой ценой, Леон против своего желания становится участником незаконных боев современных гладиаторов, дерущихся голыми руками для развлечения богатых. Ему нужны деньги, чтобы помочь семье своего брата.
Автор рипа: Sem-te
Релиз от:

Качество видео: [url=viewtopic.php?t=5117318]BD[/url]Rip-AVC
Формат видео: MKV
Видео: MPEG-4 AVC, 1088x592 (1.85:1), 23.976 fps, x264 ~3378 kbps avg, 0.219 bit/pixel
Аудио 1: 48 kHz, AC3 Dolby Digital, 2/0 (L,R) ch, ~192 kbps avg | МVO
Аудио 2: 48 kHz, AC3 Dolby Digital, 2/0 (L,R) ch, ~192 kbps avg | DVO
Аудио 3: 48 kHz, AC3 Dolby Digital, 2/0 (L,R) ch, ~192 kbps avg | Eng
MediaInfoGeneral
Unique ID : 216764454184962627017859261084935757733 (0xA31350B8C4F816CFADFF88791A6D9FA5)
Format : Matroska
Format version : Version 2
File size : 2.90 GiB
Duration : 1h 45mn
Overall bit rate : 3 954 Kbps
Movie name : Автор рипа: Sem-te
Encoded date : UTC 2017-02-11 06:39:08
Writing application : mkvmerge v7.8.0 ('River Man') 32bit built on Apr 3 2015 12:11:22
Writing library : libebml v1.3.1 + libmatroska v1.4.2
Video
ID : 1
Format : AVC
Format/Info : Advanced Video Codec
Format profile : High@L4.1
Format settings, CABAC : Yes
Format settings, ReFrames : 12 frames
Codec ID : V_MPEG4/ISO/AVC
Duration : 1h 45mn
Bit rate : 3 378 Kbps
Width : 1 088 pixels
Height : 592 pixels
Display aspect ratio : 1.85:1
Frame rate mode : Constant
Frame rate : 23.976 fps
Color space : YUV
Chroma subsampling : 4:2:0
Bit depth : 8 bits
Scan type : Progressive
Bits/(Pixel*Frame) : 0.219
Stream size : 2.42 GiB (83%)
Writing library : x264 core 146 r2538 121396c
Encoding settings : cabac=1 / ref=12 / deblock=1:-2:-1 / analyse=0x3:0x133 / me=umh / subme=11 / psy=1 / psy_rd=1.00:0.20 / mixed_ref=1 / me_range=48 / chroma_me=1 / trellis=2 / 8x8dct=1 / cqm=0 / deadzone=21,11 / fast_pskip=1 / chroma_qp_offset=-3 / threads=3 / lookahead_threads=1 / sliced_threads=0 / nr=0 / decimate=1 / interlaced=0 / bluray_compat=0 / constrained_intra=0 / bframes=12 / b_pyramid=2 / b_adapt=2 / b_bias=0 / direct=3 / weightb=1 / open_gop=0 / weightp=2 / keyint=250 / keyint_min=23 / scenecut=40 / intra_refresh=0 / rc_lookahead=60 / rc=2pass / mbtree=1 / bitrate=3378 / ratetol=1.0 / qcomp=0.60 / qpmin=0 / qpmax=69 / qpstep=4 / cplxblur=20.0 / qblur=0.5 / ip_ratio=1.40 / aq=1:1.00
Default : Yes
Forced : No
Audio #1
ID : 2
Format : AC-3
Format/Info : Audio Coding 3
Mode extension : CM (complete main)
Format settings, Endianness : Big
Codec ID : A_AC3
Duration : 1h 45mn
Bit rate mode : Constant
Bit rate : 192 Kbps
Channel(s) : 2 channels
Channel positions : Front: L R
Sampling rate : 48.0 KHz
Bit depth : 16 bits
Compression mode : Lossy
Stream size : 144 MiB (5%)
Title : MVO (PTP)
Language : Russian
Default : Yes
Forced : No
Audio #2
ID : 3
Format : AC-3
Format/Info : Audio Coding 3
Mode extension : CM (complete main)
Format settings, Endianness : Big
Codec ID : A_AC3
Duration : 1h 45mn
Bit rate mode : Constant
Bit rate : 192 Kbps
Channel(s) : 2 channels
Channel positions : Front: L R
Sampling rate : 48.0 KHz
Bit depth : 16 bits
Compression mode : Lossy
Stream size : 144 MiB (5%)
Title : DVO (Twister)
Language : Russian
Default : No
Forced : No
Audio #3
ID : 4
Format : AC-3
Format/Info : Audio Coding 3
Mode extension : CM (complete main)
Format settings, Endianness : Big
Codec ID : A_AC3
Duration : 1h 45mn
Bit rate mode : Constant
Bit rate : 192 Kbps
Channel(s) : 2 channels
Channel positions : Front: L R
Sampling rate : 48.0 KHz
Bit depth : 16 bits
Compression mode : Lossy
Stream size : 144 MiB (5%)
Language : English
Default : No
Forced : No
Text #1
ID : 5
Format : UTF-8
Codec ID : S_TEXT/UTF8
Codec ID/Info : UTF-8 Plain Text
Language : Russian
Default : No
Forced : No
Text #2
ID : 6
Format : UTF-8
Codec ID : S_TEXT/UTF8
Codec ID/Info : UTF-8 Plain Text
Language : English
Default : No
Forced : No

log x264

avs [info]: 1088x592p 1:1 @ 2997/125 fps (cfr)
x264 [info]: using SAR=1/1
x264 [info]: using cpu capabilities: MMX2 SSE2Fast SSSE3 SSE4.2
x264 [info]: profile High, level 4.1
x264 [info]: frame I:981 Avg QP:21.75 size: 88024
x264 [info]: frame P:28065 Avg QP:24.60 size: 29932
x264 [info]: frame B:122211 Avg QP:26.33 size: 14203
x264 [info]: consecutive B-frames: 1.1% 1.1% 5.4% 11.4% 10.7% 53.5% 4.2% 1.4% 1.7% 2.0% 2.3% 4.3% 0.7%
x264 [info]: mb I I16..4: 4.7% 85.0% 10.3%
x264 [info]: mb P I16..4: 0.3% 10.5% 0.7% P16..4: 33.3% 37.3% 9.6% 0.9% 0.1% skip: 7.2%
x264 [info]: mb B I16..4: 0.0% 1.9% 0.1% B16..8: 45.4% 17.9% 2.7% direct: 6.6% skip:25.4% L0:46.7% L1:49.0% BI: 4.3%
x264 [info]: 8x8 transform intra:91.9% inter:65.9%
x264 [info]: direct mvs spatial:99.0% temporal:1.0%
x264 [info]: coded y,uvDC,uvAC intra: 96.3% 65.6% 29.6% inter: 35.5% 19.9% 0.5%
x264 [info]: i16 v,h,dc,p: 30% 25% 13% 32%
x264 [info]: i8 v,h,dc,ddl,ddr,vr,hd,vl,hu: 6% 5% 7% 12% 17% 15% 15% 12% 12%
x264 [info]: i4 v,h,dc,ddl,ddr,vr,hd,vl,hu: 9% 7% 7% 9% 15% 15% 14% 12% 12%
x264 [info]: i8c dc,h,v,p: 37% 25% 19% 19%
x264 [info]: Weighted P-Frames: Y:6.2% UV:1.9%
x264 [info]: ref P L0: 39.4% 10.3% 20.2% 7.0% 6.3% 4.1% 4.0% 2.0% 2.0% 1.5% 1.6% 1.4% 0.2% 0.0%
x264 [info]: ref B L0: 65.5% 14.1% 7.4% 3.7% 2.8% 2.2% 1.7% 1.0% 0.9% 0.5% 0.2%
x264 [info]: ref B L1: 90.3% 9.7%
x264 [info]: kb/s:3375.92

Скриншоты

Source vs Encode

Source vs Encode


Сравнение

[url=viewtopic.php?t=4707439]http://torrentc/forum/viewtopic.php?t=4707439[/url]


[torrentc.info]_torrent-5355549.torrent
Торрент: Зарегистрирован ·  [ 2017-02-14 13:48 ] ·  404a8721af2088a2807e3f96bb60160b197611b0

15 KB

Статус: проверено
Скачан: 0 раз
Размер: 2.9 GB
Оценка: 
(Голосов: 0)
Сказали спасибо: 0  Спасибо
Похожие темы
[Профиль]    [ЛС]
Показать сообщения:    
Ответить на тему

Текущее время: Сегодня 18:42

Часовой пояс: GMT + 7



Вы не можете начинать темы
Вы не можете отвечать на сообщения
Вы не можете редактировать свои сообщения
Вы не можете удалять свои сообщения
Вы не можете голосовать в опросах
Вы не можете прикреплять файлы к сообщениям
Вы можете скачивать файлы