Кондор / Dögkeselyü / Dogkeselyu (Андраш Ференц / Ferenc András) [1982, Венгрия, драма, детектив, VHSRip] [Советская прокатная копия] Dub (Горького)

Ответить на тему
Статистика раздачи [Обновить пиров]
Размер:  4.13 GB   |    Зарегистрирован:  1 год 10 месяцев   |    Скачан:  0 раз

Полного источника не было: Никогда

 
   
 
 
 
Автор Сообщение

torrentc.info

Создавать темы 14-Фев-2017 13:48

[Цитировать]

Кондор / Dögkeselyü [Советская прокатная копия]- Страна: Венгрия
Жанр: драма, детектив
Год выпуска: 1982
Продолжительность: 01:34:48-Перевод: Профессиональный (дублированный) - Киностудия им. М. Горького
Cубтитры: нет-Режиссер: Андраш Ференц / Ferenc András
В ролях: Дьёрдь Черхальми, Зита Перцель, Ференц Бач, Ирен Бодиш, Нора Гёрбе, Шандор Хальмадьи, Тибор Криштоф, Ева Алмашши Альберт, Хеди Темешши, Мария Гладковская, Петер Блашко, Марианна Моор, Вера Пап, Ласло Сабо, Петер Готар, Дороття Удварош, Фридьеш Холоши, Иштван Бичкеи, Пал Михаи, Тибор Кендереши, Лайош Краниц, Мари Кишш, Габор Шалингер, Карой Вогт, Денеш Уйлаки, Анита Абель, Янош Катона, Дьёрдь Айтаи Андор- | Релиз: -Описание: По роману Миклоша Мункачи.
Две пожилые, приличные на вид дамы сели в такси и украли у шофера суточную выручку. Для Йожефа Шимона, вчерашнего инженера, а ныне таксиста, запутавшегося в долгах, зарабатывающего на свою жизнь и на содержание семьи, из которой ушел, на снимаемую комнату и прочее - это было настоящей бедой. Он понял, что общество в лице правоохранительных органов не защитит попавшего в беду человека. Оно даже не верит ему. Шимон берется сам восстановить справедливость.. Он пускается по следу преступниц, проникает в мир мафиози, шантажирует, похищает чужие автомобили и людей и сам в итоге становится жертвой.-Семпл: http://sendfile.su/1305938-Тип релиза: VHSRip
Контейнер: MPG
Видео: 720x576 (4:3) @ 768x576, 25.000 fps, MPEG-2 Video, ~5853 Kbps, 0.564 bits/pixel
Аудио: Русский, 48.0 KHz, AC3, 2 ch, 256 Kbps

MediaInfo

GeneralComplete name : Кондор 1982 Dub Горького.mpgFormat : MPEG-PSFile size : 4.13 GiBDuration : 1 h 34 minOverall bit rate mode : VariableOverall bit rate : 6 233 kb/s
VideoID : 224 (0xE0)Format : MPEG VideoFormat version : Version 2Format profile : Main@MainFormat settings, BVOP : YesFormat settings, Matrix : CustomFormat settings, GOP : M=3, N=12Format settings, picture structure : FrameDuration : 1 h 34 minBit rate mode : VariableBit rate : 5 853 kb/sMaximum bit rate : 9 500 kb/sWidth : 720 pixelsHeight : 576 pixelsDisplay aspect ratio : 4:3Frame rate : 25.000 FPSStandard : PALColor space : YUVChroma subsampling : 4:2:0Bit depth : 8 bitsScan type : InterlacedScan order : Top Field FirstCompression mode : LossyBits/(Pixel*Frame) : 0.564Time code of first frame : 00:00:00:00Time code source : Group of pictures headerGOP, Open/Closed : OpenGOP, Open/Closed of first frame : ClosedStream size : 3.88 GiB (94%)
AudioID : 189 (0xBD)-128 (0x80)Format : AC-3Format/Info : Audio Coding 3Mode extension : CM (complete main)Format settings, Endianness : BigMuxing mode : DVD-VideoDuration : 1 h 34 minBit rate mode : ConstantBit rate : 256 kb/sChannel(s) : 2 channelsChannel positions : Front: L RSampling rate : 48.0 kHzFrame rate : 31.250 FPS (1536 spf)Bit depth : 16 bitsCompression mode : LossyStream size : 174 MiB (4%)
Журнал "Спутник кинозрителя" №4 1989г.">

Скриншоты Журнал "Спутник кинозрителя" №4 1989г.




[torrentc.info]_torrent-5352907.torrent
Торрент: Зарегистрирован ·  [ 2017-02-14 13:48 ] ·  97f532f5b2a50f894674bed43df53ac30dedc5d9

21 KB

Статус: проверено
Скачан: 0 раз
Размер: 4.13 GB
Оценка: 
(Голосов: 0)
Сказали спасибо: 0  Спасибо
Похожие темы
[Профиль]    [ЛС]
Показать сообщения:    
Ответить на тему

Текущее время: Сегодня 01:01

Часовой пояс: GMT + 7



Вы не можете начинать темы
Вы не можете отвечать на сообщения
Вы не можете редактировать свои сообщения
Вы не можете удалять свои сообщения
Вы не можете голосовать в опросах
Вы не можете прикреплять файлы к сообщениям
Вы можете скачивать файлы