Пожиратель змей 2: Борьба с наркотиками / Snake Eater II: The Drug Buster (Джордж Эршбэймер / George Erschbamer) [1989, Канада, Боевик, DVDRip] AVO (П. Прямостанов) + Original Eng

Ответить на тему
Статистика раздачи [Обновить пиров]
Размер:  1.45 GB   |    Зарегистрирован:  1 год 9 месяцев   |    Скачан:  0 раз

Полного источника не было: Никогда

 
   
 
 
 
Автор Сообщение

torrentc.info

Создавать темы 14-Фев-2017 13:48

[Цитировать]

Пожиратель змей 2: Борьба с наркотиками / Snake Eater II: The Drug Buster
Страна: Канада
Жанр: Боевик
Год выпуска: 1989
Продолжительность: 1:32:29
Перевод: Авторский (одноголосый закадровый) П. Прямостанов
Cубтитры: нет
Оригинальная аудиодорожка: английский
Режиссер: Джордж Эршбэймер / George Erschbamer
В ролях: Лоренцо Ламас
Мишель Скарабелли
Лэрри Б. Скотт
Харви Аиткен
Джек Блум
Ричард Жютра
Рон Палильо
Соня Биддл
Марк Бреннан
Кэтлин Кинмонт
Описание: Джек Келли по прозвищу «Солдат» — опять на тропе войны. Ему пришлось не по душе, что наркоторговцы распоясались окончательно: мало того, что бандиты почти всю молодежь посадили на иглу, так они еще и разбавили очередную партию кокаина крысиным ядом, отчего, понятное дело, подростки толпами начали умирать.
Джек Келли взял в руки оружие и разобрался с главарями местной наркомафии, как умел, — то есть поубивал их всех, кого встретил на своем пути. Властям такое самоуправство не понравилось, и суд назначил «Змеееду» принудительное обследование в психиатрической лечебнице.
Конечно же, Джек стал по ночам оттуда сбегать, чтобы продолжать громить врагов американского народа, которыми он считает наркоторговцев.
Доп. информация: За звуковую дорожку П. Прямостанова спасибо Mixa_12345_mixa
Видеоряд найден в сети
Остальные части в Авторском переводе :
[url=viewtopic.php?t=5302010]http://torrentc/forum/viewtopic.php?t=5302010[/url]
[url=viewtopic.php?t=5353062]http://torrentc/forum/viewtopic.php?t=5353062[/url]
Сэмпл: https://yadi.sk/i/v4EkqhGW3CybKi
Качество видео: DVDRip
Формат видео: AVI
Видео: XviD , 640x480 (1.33:1) , 23.976 fps , 1 846 Kbps
Аудио: AC3 , 48 kHz , 192.00 kbps avg , 2/0 (L,R) ch
Аудио 2: AC3 , 48 kHz , 192.00 kbps avg , 2/0 (L,R) ch

MediaInfo

Complete name Пожиратель змей 2 1989 (Pryamostanov).avi
Format : AVI
Format/Info : Audio Video Interleave
File size : 1.45 GiB
Duration : 1h 32mn
Overall bit rate : 2 244 Kbps
Writing application : VirtualDubMod 1.5.10.3 | www.virtualdub-fr.org || (build 2550/release)
Writing library : VirtualDubMod build 2550/release
Video
ID : 0
Format : MPEG-4 Visual
Format profile : Advanced Simple@L5
Format settings, BVOP : 1
Format settings, QPel : No
Format settings, GMC : No warppoints
Format settings, Matrix : Custom
Codec ID : XVID
Codec ID/Hint : XviD
Duration : 1h 32mn
Bit rate : 1 846 Kbps
Width : 640 pixels
Height : 480 pixels
Display aspect ratio : 4:3
Frame rate : 23.976 (24000/1001) fps
Color space : YUV
Chroma subsampling : 4:2:0
Bit depth : 8 bits
Scan type : Progressive
Compression mode : Lossy
Bits/(Pixel*Frame) : 0.251
Stream size : 1.19 GiB (82%)
Writing library : XviD 73
Audio #1
ID : 1
Format : AC-3
Format/Info : Audio Coding 3
Mode extension : CM (complete main)
Format settings, Endianness : Big
Codec ID : 2000
Duration : 1h 32mn
Bit rate mode : Constant
Bit rate : 192 Kbps
Channel(s) : 2 channels
Channel positions : Front: L R
Sampling rate : 48.0 KHz
Frame rate : 31.250 fps (1536 spf)
Compression mode : Lossy
Stream size : 127 MiB (9%)
Alignment : Split accross interleaves
Interleave, duration : 42 ms (1.00 video frame)
Interleave, preload duratio : 500 ms
Audio #2
ID : 2
Format : AC-3
Format/Info : Audio Coding 3
Mode extension : CM (complete main)
Format settings, Endianness : Big
Codec ID : 2000
Duration : 1h 32mn
Bit rate mode : Constant
Bit rate : 192 Kbps
Channel(s) : 2 channels
Channel positions : Front: L R
Sampling rate : 48.0 KHz
Frame rate : 31.250 fps (1536 spf)
Compression mode : Lossy
Stream size : 127 MiB (9%)
Alignment : Split accross interleaves
Interleave, duration : 42 ms (1.00 video frame)
Interleave, preload duratio : 500 ms


[torrentc.info]_torrent-5352846.torrent
Торрент: Зарегистрирован ·  [ 2017-02-14 13:48 ] ·  199849ee987dbf8c7b9d63283ca00c586dbdb7dc

15 KB

Статус: проверено
Скачан: 0 раз
Размер: 1.45 GB
Оценка: 
(Голосов: 0)
Сказали спасибо: 0  Спасибо
Похожие темы
[Профиль]    [ЛС]
Показать сообщения:    
Ответить на тему

Текущее время: Сегодня 09:30

Часовой пояс: GMT + 7



Вы не можете начинать темы
Вы не можете отвечать на сообщения
Вы не можете редактировать свои сообщения
Вы не можете удалять свои сообщения
Вы не можете голосовать в опросах
Вы не можете прикреплять файлы к сообщениям
Вы можете скачивать файлы