Сплоченные / Пальцы сжатые в кулак / Band of the hand (Пол Майкл Глэйзер / Paul Michael Glaser) [1986, США, боевик, приключения, криминал, драма, BDRip] DVO + Original Eng + Sub (Rus, Eng)

Ответить на тему
Статистика раздачи [Обновить пиров]
Размер:  1.45 GB   |    Зарегистрирован:  1 год 10 месяцев   |    Скачан:  0 раз

Полного источника не было: Никогда

 
   
 
 
 
Автор Сообщение

torrentc.info

Создавать темы 14-Фев-2017 13:48

[Цитировать]

Сплоченные / Пальцы сжатые в кулак / Band of the hand
Страна: США
Жанр: боевик, приключения, криминал, драма
Год выпуска: 1986
Продолжительность: 01:49:40
Перевод: Профессиональный (двухголосый закадровый)
Cубтитры: Русские / Английские (отдельно)
Оригинальная аудиодорожка: Английский
Режиссер: Пол Майкл Глэйзер / Paul Michael Glaser
В ролях: Стивен Лэнг, Майкл Кармине, Лорен Холли, Джон Кэмерон Митчелл, Дэнни Куинн, Леон Эл Шэннон, Дэнтон Стоун, Пол Кальдерон, Лоренс Фишбёрн
Описание: Пятеро безнадежных преступников направлены в городок Эверглейдс для прохождения специального «курса выживания» — тренировок под руководством Индейца Джо. Именно так государство решает перевоспитать своих граждан. После окончания курса парни возвращаются в Майами, что совершенно не устраивает местного наркобарона. Конфликт быстро перерастает в настоящую войну, и никто не знает, кто выйдет победителем из нее....
Сэмпл: http://multi-up.com/1139008
Качество видео: BDRip (Исходник Band.of.the.Hand.1986.BDRemux (1080p))
Формат видео: AVI
Видео: XviD 73, 720x400, (16:9), 23,976 fps, 1493 Кбит/с, 0.21 bit/pixel
Аудио: Русский (АС3, 2 ch (Front: L R), 48,0 KHz, 192 Kbps)
Аудио 2: Английский (АС3, 2 ch (Front: L R), 48,0 KHz, 192 Kbps)

MediaInfo

Общее
Полное имя : F:\Видеофильмы\В и д е о\Сплоченные_(боевик,криминал 1986 год)_Leonard_Lew\Сплоченные_(боевик,криминал 1986 год)_Leonard_Lew.avi
Формат : AVI
Формат/Информация : Audio Video Interleave
Размер файла : 1,45 Гбайт
Продолжительность : 1 ч. 49 м.
Общий поток : 1891 Кбит/сек
Программа кодирования : VirtualDubMod 1.5.10.3 | www.virtualdub-fr.org || (build 2550/release)
Библиотека кодирования : VirtualDubMod build 2550/release
Видео
Идентификатор : 0
Формат : MPEG-4 Visual
Профиль формата : Advanced Simple@L5
Параметр BVOP формата : 2
Параметр QPel формата : Нет
Параметр GMC формата : Без точки перехода
Параметр матрицы формата : Выборочная
Идентификатор кодека : XVID
Идентификатор кодека/Подсказка : XviD
Продолжительность : 1 ч. 49 м.
Битрейт : 1493 Кбит/сек
Ширина : 720 пикселей
Высота : 400 пикселей
Соотношение сторон : 16:9
Частота кадров : 23,976 (23976/1000) кадра/сек
Цветовое пространство : YUV
Субдискретизация насыщенности : 4:2:0
Битовая глубина : 8 бит
Тип развёртки : Прогрессивная
Метод сжатия : С потерями
Бит/(Пиксели*Кадры) : 0.216
Размер потока : 1,14 Гбайт (79%)
Библиотека кодирования : XviD 73
Аудио #1
Идентификатор : 1
Формат : AC-3
Формат/Информация : Audio Coding 3
Расширение режима : CM (complete main)
Параметр Endianness формата : Big
Идентификатор кодека : 2000
Продолжительность : 1 ч. 49 м.
Вид битрейта : Постоянный
Битрейт : 192 Кбит/сек
Каналы : 2 канала
Расположение каналов : Front: L R
Частота : 48,0 КГц
Частота кадров : 31,250 кадров/сек (1536 spf)
Метод сжатия : С потерями
Размер потока : 151 Мбайт (10%)
Выравнивание : Разделение по промежуткам
Продолжительность промежутка : 42 мс. (1,00 видеокадр)
Время предзагрузки промежутка : 500 мс.
Аудио #2
Идентификатор : 2
Формат : AC-3
Формат/Информация : Audio Coding 3
Расширение режима : CM (complete main)
Параметр Endianness формата : Big
Идентификатор кодека : 2000
Продолжительность : 1 ч. 49 м.
Вид битрейта : Постоянный
Битрейт : 192 Кбит/сек
Каналы : 2 канала
Расположение каналов : Front: L R
Частота : 48,0 КГц
Частота кадров : 31,250 кадров/сек (1536 spf)
Метод сжатия : С потерями
Размер потока : 151 Мбайт (10%)
Выравнивание : Разделение по промежуткам
Продолжительность промежутка : 42 мс. (1,00 видеокадр)
Время предзагрузки промежутка : 500 мс.

Скриншот c названием фильма

Скриншоты

Сравнение[url=viewtopic.php?t=4426277]http://torrentc/forum/viewtopic.php?t=4426277[/url]


[torrentc.info]_torrent-5352155.torrent
Торрент: Зарегистрирован ·  [ 2017-02-14 13:48 ] ·  c45bca5dd137052d84d3026b0ee2eea9237acd0b

15 KB

Статус: проверено
Скачан: 0 раз
Размер: 1.45 GB
Оценка: 
(Голосов: 0)
Сказали спасибо: 0  Спасибо
Похожие темы
[Профиль]    [ЛС]
Показать сообщения:    
Ответить на тему

Текущее время: Сегодня 23:43

Часовой пояс: GMT + 7



Вы не можете начинать темы
Вы не можете отвечать на сообщения
Вы не можете редактировать свои сообщения
Вы не можете удалять свои сообщения
Вы не можете голосовать в опросах
Вы не можете прикреплять файлы к сообщениям
Вы можете скачивать файлы