Хватка душителя / Преследуемый душитель / Grip of the Strangler / The Haunted Strangler (Роберт Дэй / Robert Day) [1958, Великобритания, ужасы, криминал, детектив, DVDRip] Sub Rus + Original Eng

Ответить на тему
Статистика раздачи [Обновить пиров]
Размер:  851 MB   |    Зарегистрирован:  1 год 9 месяцев   |    Скачан:  0 раз

Полного источника не было: Никогда

 
   
 
 
 
Автор Сообщение

torrentc.info

Создавать темы 14-Фев-2017 13:48

[Цитировать]

Хватка душителя / Grip of the Strangler / The Haunted Strangler
Страна: Великобритания
Жанр: ужасы, криминал, детектив
Год выпуска: 1958
Продолжительность: 1:18:40
Перевод: Субтитры (Serveladkin)
Cубтитры: русские
Оригинальная аудиодорожка: английский
Режиссер: Роберт Дэй / Robert Day
В ролях: Борис Карлофф, Джин Кент, Элизабет Аллан, Энтони Доусон, Вера Дэй, Тим Тернер, Дайан Обри, Макс Бриммель, Лесли Перринс, Джессика Кейрнс, Дороти Гордон, Десмонд Робертс, Рой Расселл, Дерек Бирч, Пегги Энн Клиффорд, Джон Фабиан, Джоан Элвин, Одри Сайкс
Описание: Лондон. 1880 год. Писатель Джеймс Рэнкин занимается расследованием обстоятельств жизни однорукого серийного убийцы Эдварда Стайлза, казненного двадцать лет тому назад. Вскоре Рэнкин приходит к выводу, что настоящим маньяком может быть не Стайлз, а доктор Теннант. Чтобы доказать свою теорию, Рэнкин эксгумирует труп Стайлса и обнаруживает в его гробу скальпель доктора Теннанта, который служил ему орудием убийства. Нечаянно писатель ранит себе руку скальпелем и неожиданно сам превращается в серийного убийцу.
Доп. информация:
Фильмография Бориса Карлоффа
Качество видео: DVDRip (by netphemera@CG)
Формат видео: AVI
Видео: 640x480 (1.33:1), 23.976 fps, XviD build 50 ~1310 kbps avg, 0.18 bit/pixel
Аудио: 48 kHz, AC3 Dolby Digital, 1/0 (C) ch, ~192 kbps
Формат субтитров: softsub (SRT)
ОГРОМНОЕ СПАСИБО Serveladkin за перевод

MediaInfo

ОбщееПолное имя : ...\The Haunted Strangler (1958).aviФормат : AVIФормат/Информация : Audio Video InterleaveРазмер файла : 851 МбайтПродолжительность : 1 ч. 18 м.Общий поток : 1512 Кбит/секПрограмма кодирования : VirtualDubMod 1.5.10.2 (build 2540/release)Библиотека кодирования : VirtualDubMod build 2540/release
ВидеоИдентификатор : 0Формат : MPEG-4 VisualПрофиль формата : Advanced Simple@L5Параметр BVOP формата : 1Параметр QPel формата : НетПараметр GMC формата : Без точки переходаПараметр матрицы формата : ВыборочнаяИдентификатор кодека : XVIDИдентификатор кодека/Подсказка : XviDПродолжительность : 1 ч. 18 м.Битрейт : 1310 Кбит/секШирина : 640 пикселейВысота : 480 пикселейСоотношение сторон : 4:3Частота кадров : 23,976 (23976/1000) кадра/секЦветовое пространство : YUVСубдискретизация насыщенности : 4:2:0Битовая глубина : 8 битТип развёртки : ПрогрессивнаяМетод сжатия : С потерямиБит/(Пиксели*Кадры) : 0.178Размер потока : 737 Мбайт (87%)Библиотека кодирования : XviD 1.2.1 (UTC 2008-12-04)
АудиоИдентификатор : 1Формат : AC-3Формат/Информация : Audio Coding 3Расширение режима : CM (complete main)Параметр Endianness формата : BigИдентификатор кодека : 2000Продолжительность : 1 ч. 18 м.Вид битрейта : ПостоянныйБитрейт : 192 Кбит/секКаналы : 1 каналРасположение каналов : Front: CЧастота : 48,0 КГцЧастота кадров : 31,250 кадров/сек (1536 spf)Метод сжатия : С потерямиРазмер потока : 108 Мбайт (13%)Выравнивание : Разделение по промежуткамПродолжительность промежутка : 42 мс. (1,00 видеокадр)Время предзагрузки промежутка : 500 мс.Язык : English
Фрагмент субтитров">

Скриншоты Фрагмент субтитров


6300:07:33,360 --> 00:07:35,300Посмотрите, тут все расписано.
6400:07:35,400 --> 00:07:38,280Пять молодых женщинжестоко убиты в этом районе.
6500:07:38,440 --> 00:07:42,380И вскрытие их всех проводилдоктор Теннант.
6600:07:42,860 --> 00:07:44,440На что вы намекаете?
6700:07:44,520 --> 00:07:47,920Что он мог знать об убийствахне меньше других.
6800:07:48,040 --> 00:07:50,770Но я так его и не нашел.К Хорсли он так и не вернулся.
6900:07:50,840 --> 00:07:53,710Даже за полагающимся ему жалованием!
7000:07:53,900 --> 00:07:58,010Почему он исчез сразу после того,как Стайлза повесили?
7100:07:58,180 --> 00:08:01,980Похоже, в своем воображении высостряпали какую-то натянутую теорию.
7200:08:02,080 --> 00:08:03,860Разве она такая уж натянутая?
7300:08:04,020 --> 00:08:06,440Знал ли он, что Стайлз был невиновен?
7400:08:06,520 --> 00:08:08,500Не скрывал ли он что-нибудь?
7500:08:08,600 --> 00:08:11,160Мой дорогой Рэнкин,я знаю вас очень давно.
7600:08:11,260 --> 00:08:13,700Позвольте сказать вам, что я в жизнине слышал подобной чепухи.
7700:08:13,800 --> 00:08:15,540Но как вы можете называть это чепухой,
7800:08:15,620 --> 00:08:17,480если даже не знаете,почему исчез Теннант?
7900:08:17,540 --> 00:08:20,670Но я знаю.Взгляните, все здесь, в отчете Хорсли.
8000:08:20,900 --> 00:08:23,780Вот. Теннант был направлен в больницуГая серьезно больным.
8100:08:23,860 --> 00:08:25,660Исчез он уже оттуда.
8200:08:26,100 --> 00:08:27,740Вы куда?
8300:08:28,010 --> 00:08:33,440В больницу Гая, разумеется,состряпать еще одну натянутую теорию.


[torrentc.info]_torrent-5352070.torrent
Торрент: Зарегистрирован ·  [ 2017-02-14 13:48 ] ·  57675bb5c2bb0d4861d068c8a21b31402c00ee17

17 KB

Статус: проверено
Скачан: 0 раз
Размер: 851 MB
Оценка: 
(Голосов: 0)
Сказали спасибо: 0  Спасибо
Похожие темы
[Профиль]    [ЛС]
Показать сообщения:    
Ответить на тему

Текущее время: Сегодня 18:01

Часовой пояс: GMT + 7



Вы не можете начинать темы
Вы не можете отвечать на сообщения
Вы не можете редактировать свои сообщения
Вы не можете удалять свои сообщения
Вы не можете голосовать в опросах
Вы не можете прикреплять файлы к сообщениям
Вы можете скачивать файлы