Тигр Варшава / Тигр Уорсоу / По прозвищу Тигр / Уорсоу по прозвищу Тигр / Tiger Warsaw / Dirty Tiger / The Tiger (Амин Чаудхри / Amin Chaudhri) [1988, США, Драма, VHSRip] [Full Screen] AVO (Кузнецов)

Ответить на тему
Статистика раздачи [Обновить пиров]
Размер:  1.37 GB   |    Зарегистрирован:  1 год 9 месяцев   |    Скачан:  0 раз

Полного источника не было: Никогда

 
   
 
 
 
Автор Сообщение

torrentc.info

Создавать темы 14-Фев-2017 13:48

[Цитировать]

Тигр Варшава / Тигр Уорсоу / По прозвищу Тигр / Уорсоу по прозвищу Тигр / Tiger Warsaw / Dirty Tiger / The Tiger
«Years ago he shattered his life. Now he's back to pick up the pieces»
[Full Screen]
Страна: США
Жанр: Драма
Год выпуска: 1988
Продолжительность: 01:28:42
Перевод: Авторский (одноголосый закадровый) Кузнецов
Cубтитры: нет
Режиссер: Амин Чаудхри / Amin Chaudhri
В ролях: Патрик Суэйзи , Джеймс Патрик Гиллис, Сильвия Дэвис, Пайпер Лори, Ли Ричардсон
Описание: Чак Уорсо по кличке "Тигр" ранил отца из револьвера, накачавшись наркотиками. После этого исчез из города, как казалось, навсегда. Но через 15 лет завязавший с наркотиками герой, уже порядком уставший от неустроенной жизни, возвращается в родной город и пытается привести в порядок то, что от этой жизни осталось. В роли Чака - популярный актер Суэйзи. Его персонаж мучается и не может простить себе прошлого, не может его простить и семья... Скучноватая и несколько бессвязная мелодрама. (Иванов М.)
Доп. информация: Спасибо RoxMarty оцифровка VHS и предоставление для релиза
Релиз
Сэмпл: https://yadi.sk/i/Uc8JTD1V3CVXGm
Качество видео: VHSRip
Формат видео: AVI
Видео: 704x544 (1.29:1), 25 fps, XviD build 73 ~2002 kbps avg, 0.21 bit/pixel
Аудио: 48 kHz, AC3 Dolby Digital, 2/0 (L,R) ch, ~192 kbps

MediaInfo

Тигр Варшава (Tiger Warsaw) FS {by Edich2}.avi
Format : AVI
Format/Info : Audio Video Interleave
File size : 1.37 GiB
Duration : 1 h 28 min
Overall bit rate : 2 204 kb/s
Movie name : Тигр Варшава (Tiger Warsaw) FS {by Edich2}
Director : by Edich2
Writing application : VirtualDubMod 1.5.10.3 | www.virtualdub-fr.org || (build 2550/release)
Copyright : Roxmarty
Comment : torrentc
Video
ID : 0
Format : MPEG-4 Visual
Format profile : Advanced Simple@L5
Format settings, BVOP : 1
Format settings, QPel : No
Format settings, GMC : No warppoints
Format settings, Matrix : Custom
Codec ID : XVID
Codec ID/Hint : XviD
Duration : 1 h 28 min
Bit rate : 2 002 kb/s
Width : 704 pixels
Height : 544 pixels
Display aspect ratio : 1.294
Frame rate : 25.000 FPS
Color space : YUV
Chroma subsampling : 4:2:0
Bit depth : 8 bits
Scan type : Progressive
Compression mode : Lossy
Bits/(Pixel*Frame) : 0.209
Stream size : 1.24 GiB (91%)
Writing library : XviD 73
Audio
ID : 1
Format : AC-3
Format/Info : Audio Coding 3
Mode extension : CM (complete main)
Format settings, Endianness : Big
Codec ID : 2000
Duration : 1 h 28 min
Bit rate mode : Constant
Bit rate : 192 kb/s
Channel(s) : 2 channels
Channel positions : Front: L R
Sampling rate : 48.0 kHz
Frame rate : 31.250 FPS (1536 spf)
Compression mode : Lossy
Stream size : 122 MiB (9%)
Alignment : Split accross interleaves
Interleave, duration : 40 ms (1.00 video frame)
Interleave, preload duratio : 500 ms

Скриншоты




[torrentc.info]_torrent-5351202.torrent
Торрент: Зарегистрирован ·  [ 2017-02-14 13:48 ] ·  b550dd1c1905e98b9554dca2cf3ef14e7133b58b

14 KB

Статус: проверено
Скачан: 0 раз
Размер: 1.37 GB
Оценка: 
(Голосов: 0)
Сказали спасибо: 0  Спасибо
Похожие темы
[Профиль]    [ЛС]
Показать сообщения:    
Ответить на тему

Текущее время: Сегодня 15:44

Часовой пояс: GMT + 7



Вы не можете начинать темы
Вы не можете отвечать на сообщения
Вы не можете редактировать свои сообщения
Вы не можете удалять свои сообщения
Вы не можете голосовать в опросах
Вы не можете прикреплять файлы к сообщениям
Вы можете скачивать файлы