Дикая штучка / Невероятная история / Something Wild (Джонатан Демме / Jonathan Demme) [1986, США, мелодрама, комедия, криминал, HDRip] VO (НТВ) + Original Eng

Ответить на тему
Статистика раздачи [Обновить пиров]
Размер:  1.46 GB   |    Зарегистрирован:  1 год 9 месяцев   |    Скачан:  1 раз

Полного источника не было: 8 дней

 
   
 
 
 
Автор Сообщение

torrentc.info

Создавать темы 14-Фев-2017 13:48

[Цитировать]

Дикая штучка / Невероятная история / Something Wild
«Something Different Something Daring Something Dangerous»
Страна: США
Жанр: мелодрама, комедия, криминал
Год выпуска: 1986
Продолжительность: 01:53:46
Перевод: Студийный (одноголосый закадровый) - НТВ
Cубтитры: нет
Оригинальная аудиодорожка: английская
Режиссер: Джонатан Демме / Jonathan Demme
В ролях: Джефф Дэниелс, Мелани Гриффит, Рэй Лиотта, Джордж «Рэд» Шварц, Лейб Ленски, Трейси Уолтер, Мэгги Т., Патриция Фалькенхейн, Сэнди МакЛеод, Роберт Риджли.
Описание: Преуспевающий вице-президент компании Чарльз Дригз зашел пообедать в кафе и не заплатил по счету. На улице его догнала очаровательная незнакомка и пригрозила полицией. В ходе разговора оказалось, что она не имеет никакого отношения к кафе.
Лулу пригласила Чарльза в свою машину и увезла в Пенсильванию. Там она представила его своим мужем и пригласила на вечеринку с бывшими одноклассниками. На вечеринку пришел и ее бывший муж, вернувшийся из заключения.
Соперничество между Чарльзом и Реем закончилось дракой. В результате вмешательства полиции Чарльз теряет Лулу из виду, но ищет ее повсюду. И вот, когда он уже отчаялся найти ее, он встречает Лулу в том же самом кафе.
[img]https://rating.kinopoisk.ru/9936.gif[/img]
Доп. информация: Исходник (BDRip 720p от HDBits) позаимствован из раздачи serin с HDClub
За предоставление перевода телекомпании «НТВ» благодарность отсылается [url=profile.php?mode=viewprofile&u=16794561]Glowamy[/url]
HDRip и сведение русской звуковой дорожки - [url=profile.php?mode=viewprofile&u=12431118]Arle-kino[/url]

Качество видео: HDRip
Формат видео: AVI
Видео: 720x400 (1.80:1), 23.976 fps, XviD build 50 ~1533 kbps avg, 0.22 bit/pixel
Аудио 1: 48 kHz, AC3 Dolby Digital, 1/0 (C) ch, ~96 kbps - rus (HTB)
Аудио 2: 48 kHz, AC3 Dolby Digital, 2/0 (L,R) ch, ~192 kbps - eng

MediaInfo

General
Complete name : D:\Public\Something.Wild.1986.HDRip.rus.eng.avi
Format : AVI
Format/Info : Audio Video Interleave
File size : 1.46 GiB
Duration : 1h 53mn
Overall bit rate : 1 836 Kbps
Writing application : VirtualDubMod 1.5.10.2 (build 2540/release)
Writing library : VirtualDubMod build 2540/release
Video
ID : 0
Format : MPEG-4 Visual
Format profile : Advanced Simple@L5
Format settings, BVOP : 1
Format settings, QPel : No
Format settings, GMC : No warppoints
Format settings, Matrix : Default (H.263)
Codec ID : XVID
Codec ID/Hint : XviD
Duration : 1h 53mn
Bit rate : 1 534 Kbps
Width : 720 pixels
Height : 400 pixels
Display aspect ratio : 16:9
Frame rate : 23.976 fps
Color space : YUV
Chroma subsampling : 4:2:0
Bit depth : 8 bits
Scan type : Progressive
Compression mode : Lossy
Bits/(Pixel*Frame) : 0.222
Stream size : 1.22 GiB (84%)
Writing library : XviD 1.2.1 (UTC 2008-12-04)
Audio #1
ID : 1
Format : AC-3
Format/Info : Audio Coding 3
Mode extension : CM (complete main)
Codec ID : 2000
Duration : 1h 53mn
Bit rate mode : Constant
Bit rate : 96.0 Kbps
Channel(s) : 1 channel
Channel positions : Front: C
Sampling rate : 48.0 KHz
Bit depth : 16 bits
Compression mode : Lossy
Stream size : 78.1 MiB (5%)
Alignment : Split accross interleaves
Interleave, duration : 42 ms (1.00 video frame)
Interleave, preload duration : 500 ms
Title : rus (HTB)
Audio #2
ID : 2
Format : AC-3
Format/Info : Audio Coding 3
Mode extension : CM (complete main)
Codec ID : 2000
Duration : 1h 53mn
Bit rate mode : Constant
Bit rate : 192 Kbps
Channel(s) : 2 channels
Channel positions : Front: L R
Sampling rate : 48.0 KHz
Bit depth : 16 bits
Compression mode : Lossy
Stream size : 156 MiB (10%)
Alignment : Split accross interleaves
Interleave, duration : 42 ms (1.00 video frame)
Interleave, preload duration : 500 ms
Title : eng

Скриншот c названием фильма

Скриншоты



[torrentc.info]_torrent-5350800.torrent
Торрент: Зарегистрирован ·  [ 2017-02-14 13:48 ] ·  4ce1fb33ccba4a5806afd51cfe8eb25bce87f9ff

15 KB

Статус: проверено
Скачан: 1 раз
Размер: 1.46 GB
Оценка: 
(Голосов: 0)
Сказали спасибо: 0  Спасибо
Похожие темы
[Профиль]    [ЛС]
Показать сообщения:    
Ответить на тему

Текущее время: Сегодня 16:03

Часовой пояс: GMT + 7



Вы не можете начинать темы
Вы не можете отвечать на сообщения
Вы не можете редактировать свои сообщения
Вы не можете удалять свои сообщения
Вы не можете голосовать в опросах
Вы не можете прикреплять файлы к сообщениям
Вы можете скачивать файлы