Клан аморальных / Клан безнравственных / El clan de los inmorales (Хосе Гутьеррес Маэссо / Jose Gutierrez Maesso) [1975, Испания, Италия, Доминикана, драма, криминал, DVDRip] Sub Rus (Антон Каптелов)

Ответить на тему
Статистика раздачи [Обновить пиров]
Размер:  1.4 GB   |    Зарегистрирован:  1 год 9 месяцев   |    Скачан:  0 раз

Полного источника не было: Никогда

 
   
 
 
 
Автор Сообщение

torrentc.info

Создавать темы 14-Фев-2017 13:48

[Цитировать]

Клан аморальных / Клан безнравственных / El clan de los inmorales Страна: Испания, Италия, Доминикана
Жанр: драма, криминал
Год выпуска: 1975
Продолжительность: 01:31:17
Перевод: Субтитры Антон Каптелов
Cубтитры: русские
Оригинальная аудиодорожка: нет
Режиссер: Хосе Гутьеррес Маэссо / Jose Gutierrez Maesso
В ролях: Хельмут Бергер, Сидни Ром, Кевин МакКарти, Хосе Мария Каффарель, Хосе Феррер, Хуан Луис Гальярдо, Ховард Росс, Мануэль Сарсо, Альваро де Луна, Франк Бранья
Описание: Отказавшись выполнить приказ своего босса-мафиози, Клайд Харт подписывает себе смертный приговор и за ним начинается безжалостная охота. Уходя от преследования, Клайд попадает в полицию, где инспектор Рид предлагает ему неожиданную сделку...
Сэмпл: http://multi-up.com/1138427
Качество видео: DVDRip (исходник ДВД-9 с Синемагеддона)
Формат видео: AVI
Видео: 704x352 (2.00:1), 25 fps, XviD build 67 ~1795 kbps avg, 0.29 bit/pixel
Аудио 1: 48 kHz, AC3 Dolby Digital, 2/0 (L,R) ch, ~192 kbps итальянский
Аудио 2: 48 kHz, AC3 Dolby Digital, 2/0 (L,R) ch, ~192 kbps английский
Формат субтитров: softsub (SRT)
Релиз:

MediaInfo

Формат : AVI
Формат/Информация : Audio Video Interleave
Размер файла : 1,40 Гбайт
Продолжительность : 1 ч. 31 м.
Общий поток : 2195 Кбит/сек
Программа кодирования : VirtualDubMod 1.5.10.2 (build 2540/release)
Библиотека кодирования : VirtualDubMod build 2540/release
Видео
Идентификатор : 0
Формат : MPEG-4 Visual
Профиль формата : Advanced Simple@L5
Параметр BVOP формата : 2
Параметр QPel формата : Нет
Параметр GMC формата : Без точки перехода
Параметр матрицы формата : Default (MPEG)
Идентификатор кодека : XVID
Идентификатор кодека/Подсказка : XviD
Продолжительность : 1 ч. 31 м.
Битрейт : 1796 Кбит/сек
Ширина : 704 пикселя
Высота : 352 пикселя
Соотношение сторон : 2,000
Частота кадров : 25,000 кадров/сек
Цветовое пространство : YUV
Субдискретизация насыщенности : 4:2:0
Битовая глубина : 8 бит
Тип развёртки : Прогрессивная
Метод сжатия : С потерями
Бит/(Пиксели*Кадры) : 0.290
Размер потока : 1,15 Гбайт (82%)
Библиотека кодирования : XviD 67
Аудио #1
Идентификатор : 1
Формат : AC-3
Формат/Информация : Audio Coding 3
Расширение режима : CM (complete main)
Параметр Endianness формата : Big
Идентификатор кодека : 2000
Продолжительность : 1 ч. 31 м.
Вид битрейта : Постоянный
Битрейт : 192 Кбит/сек
Каналы : 2 канала
Расположение каналов : Front: L R
Частота : 48,0 КГц
Частота кадров : 31,250 кадров/сек (1536 spf)
Метод сжатия : С потерями
Размер потока : 125 Мбайт (9%)
Выравнивание : Разделение по промежуткам
Продолжительность промежутка : 40 мс. (1,00 видеокадр)
Время предзагрузки промежутка : 500 мс.
Аудио #2
Идентификатор : 2
Формат : AC-3
Формат/Информация : Audio Coding 3
Расширение режима : CM (complete main)
Параметр Endianness формата : Big
Идентификатор кодека : 2000
Продолжительность : 1 ч. 31 м.
Вид битрейта : Постоянный
Битрейт : 192 Кбит/сек
Каналы : 2 канала
Расположение каналов : Front: L R
Частота : 48,0 КГц
Частота кадров : 31,250 кадров/сек (1536 spf)
Метод сжатия : С потерями
Размер потока : 125 Мбайт (9%)
Выравнивание : Разделение по промежуткам
Продолжительность промежутка : 40 мс. (1,00 видеокадр)
Время предзагрузки промежутка : 500 мс.

Скриншот c названием фильма

Пример субтитров

16
00:06:04,379 --> 00:06:05,824
Клайд, не делай этого.
17
00:06:09,709 --> 00:06:11,229
Я прошу!
18
00:06:27,389 --> 00:06:28,698
Гастель?
19
00:06:29,532 --> 00:06:31,197
- Гастель?
- Да.
20
00:06:31,306 --> 00:06:34,773
- Это я - Клайд.
- Адрес: Виа дель Розарио, 7...
21
00:06:34,899 --> 00:06:36,295
...квартира 9.
22
00:06:36,357 --> 00:06:38,573
Будьте осторожны - он вооружен.
Есть вопросы?
23
00:06:38,740 --> 00:06:40,246
Да, один.
24
00:06:41,045 --> 00:06:42,483
Когда я получу деньги?
25
00:06:42,631 --> 00:06:44,282
После работы, когда придете в казино.
26
00:06:44,888 --> 00:06:46,211
Удачи вам!
27
00:06:57,144 --> 00:06:59,140
Жди в хижине.
28
00:06:59,280 --> 00:07:00,799
Не верю, что ты на это способен.
29
00:07:00,928 --> 00:07:03,007
Нам нужны эти деньги!
30
00:07:03,514 --> 00:07:05,753
И других способов
заполучить их нет!
31
00:07:15,891 --> 00:07:17,915
Значит, договорились?
Хижина на пляже!
32
00:07:18,140 --> 00:07:20,251
Ты знаешь, что я не люблю ждать.
33
00:08:39,520 --> 00:08:42,490
- Альберт?!
- Не думал, что они пришлют тебя.
34
00:08:43,400 --> 00:08:44,851
Почему они хотят убить тебя?
35
00:08:44,976 --> 00:08:47,555
У МакЛина был мощный
конкурент на Карибах.
36
00:08:47,920 --> 00:08:49,809
Мне приказали устранить его.
Огромное спасибо Антону Каптелову за перевод фильма!


[torrentc.info]_torrent-5350576.torrent
Торрент: Зарегистрирован ·  [ 2017-02-14 13:48 ] ·  2d34bccd86ae16351954f511971fb69d6d2620fd

15 KB

Статус: проверено
Скачан: 0 раз
Размер: 1.4 GB
Оценка: 
(Голосов: 0)
Сказали спасибо: 0  Спасибо
Похожие темы
[Профиль]    [ЛС]
Показать сообщения:    
Ответить на тему

Текущее время: Сегодня 18:24

Часовой пояс: GMT + 7



Вы не можете начинать темы
Вы не можете отвечать на сообщения
Вы не можете редактировать свои сообщения
Вы не можете удалять свои сообщения
Вы не можете голосовать в опросах
Вы не можете прикреплять файлы к сообщениям
Вы можете скачивать файлы