Тюряга 3 / Исправительная колония 3 / Penitentiary III (Джамаа Фанака / Jamaa Fanaka) [1987, США, комедия, криминал, спорт, VHSRip] AVO (Дольский)

Ответить на тему
Статистика раздачи [Обновить пиров]
Размер:  1.4 GB   |    Зарегистрирован:  1 год 9 месяцев   |    Скачан:  0 раз

Полного источника не было: Никогда

 
   
 
 
 
Автор Сообщение

torrentc.info

Создавать темы 14-Фев-2017 13:48

[Цитировать]

Тюряга 3 / Исправительная колония 3 / Penitentiary III
Страна: США
Жанр: комедия, криминал, спорт
Год выпуска: 1987
Продолжительность: 01:31:06
Перевод: Авторский (одноголосый закадровый) Дольский
Cубтитры: нет
Режиссер: Джамаа Фанака / Jamaa Fanaka
В ролях: Леон Айзек Кеннеди
Энтони Джиари
Стив Энтин
Рик Манчини
Marie Burrell Fanaka
Рэймонд Кесслер
Рик Цумвальт
Мэджик Шварц
Джим Бэйли
Биг Булл Бейтс
Описание: Аннотация от alenavova:
Случайно убив своего соперника на ринге, боксер Ту Суит получает за это срок, но и в тюрьме продолжает заниматься знакомым делом. В смысле - драться на ринге. Потому что, оказывается, начальник тюрьмы поощряет соперничество двух спортивных команд, состоящих из заключенных. Ту Суит, конечно, поначалу сопротивлялся, но не особенно долго. И вышел драться...
Доп. информация: Оцифровка VHS (личный архив) и получение VHSRip alenavova
Эксклюзив для torrentc. При размещении данного релиза на других сайтах ссылка на автора alenavova обязательна.

Релиз-первоисточник
Сэмпл: https://yadi.sk/i/WqoWV66ZcXovF
Качество видео: VHSRip
Формат видео: AVI
Видео: 640x480 (1.33:1), 25 fps, XviD build 50 ~1999 kbps avg, 0.26 bit/pixel
Аудио: 48 kHz, AC3 Dolby Digital, 2/0 (L,R) ch, ~192 kbps

MediaInfo

Тюряга-3 - Penitentiary 3 [by alenavova].avi
Format : AVI
Format/Info : Audio Video Interleave
File size : 1.40 GiB
Duration : 1h 31mn
Overall bit rate : 2 202 Kbps
Movie name : Тюряга-3 - Penitentiary 3 [by alenavova]
Director : Rip by alenavova
Writing application : VirtualDubMod 1.5.10.3 | www.virtualdub-fr.org || (build 2550/release)
Copyright : Edich2
Comment : torrentc
Video
ID : 0
Format : MPEG-4 Visual
Format profile : Advanced Simple@L5
Format settings, BVOP : 2
Format settings, QPel : No
Format settings, GMC : No warppoints
Format settings, Matrix : Custom
Codec ID : XVID
Codec ID/Hint : XviD
Duration : 1h 31mn
Bit rate : 2 000 Kbps
Width : 640 pixels
Height : 480 pixels
Display aspect ratio : 4:3
Frame rate : 25.000 fps
Color space : YUV
Chroma subsampling : 4:2:0
Bit depth : 8 bits
Scan type : Progressive
Compression mode : Lossy
Bits/(Pixel*Frame) : 0.260
Stream size : 1.27 GiB (91%)
Writing library : XviD 1.2.1 (UTC 2008-12-04)
Audio
ID : 1
Format : AC-3
Format/Info : Audio Coding 3
Mode extension : CM (complete main)
Format settings, Endianness : Big
Codec ID : 2000
Duration : 1h 31mn
Bit rate mode : Constant
Bit rate : 192 Kbps
Channel(s) : 2 channels
Channel positions : Front: L R
Sampling rate : 48.0 KHz
Bit depth : 16 bits
Compression mode : Lossy
Stream size : 125 MiB (9%)
Alignment : Split accross interleaves
Interleave, duration : 40 ms (1.00 video frame)
Interleave, preload duration : 500 ms

Скриншоты




[torrentc.info]_torrent-4862509.torrent
Торрент: Зарегистрирован ·  [ 2017-02-14 13:48 ] ·  0fc02585b0ddb2eb75d7c070acfac3e4ca87baf3

14 KB

Статус: проверено
Скачан: 0 раз
Размер: 1.4 GB
Оценка: 
(Голосов: 0)
Сказали спасибо: 0  Спасибо
Похожие темы
[Профиль]    [ЛС]
Показать сообщения:    
Ответить на тему

Текущее время: Сегодня 10:23

Часовой пояс: GMT + 7



Вы не можете начинать темы
Вы не можете отвечать на сообщения
Вы не можете редактировать свои сообщения
Вы не можете удалять свои сообщения
Вы не можете голосовать в опросах
Вы не можете прикреплять файлы к сообщениям
Вы можете скачивать файлы