Недотёпы / Легавые / Fuzz (Ричард А. Колла /Richard A. Colla) [1972, США, боевик, триллер, драма, комедия, криминал, детектив, HDRip-AVC] MVO (R5) + AVO (Сербин)

Ответить на тему
Статистика раздачи [Обновить пиров]
Размер:  1.46 GB   |    Зарегистрирован:  1 год 10 месяцев   |    Скачан:  0 раз

Полного источника не было: Никогда

 
   
 
 
 
Автор Сообщение

torrentc.info

Создавать темы 14-Фев-2017 13:48

[Цитировать]

НедотёпыFuzz- Год выпуска: 1972
Страна: США
Жанр: боевик, триллер, драма, комедия, криминал, детектив-Продолжительность: 01:32:50
Перевод #1: Профессиональный (многоголосый закадровый) R5
Перевод #2: Авторский (одноголосый закадровый) Ю. Сербин
Режиссёр: Ричард А. Колла / Richard A. Colla
В ролях: Бёрт Рейнолдс, Джек Уэстон, Том Скерритт, Рэкел Уэлч, Джеймс МакИчин, Стив Инат, Дэн Фрейзер, Берт Ремсен, Стюарт Мосс, Х. Бенни Марковиц и др.-Описание: Фильм о буднях захолустного полицейского участка и его бестолковых полицейских. Сюжет состоит из поисков таинственного террориста, орудующего бомбами и убивающего местных официальных лиц.-КиноПоиск | IMDb | Sample-Качество: HDRip-AVC (Источник: Fuzz.1972.1080p.BluRay.x264-SADPANDA)
Формат: MKV
Видео: x264, 840x456 (1.85:1), 23.976 fps, ~1870 kbps avg, 0.204 bit/pixel
Аудио #1: Russian 48.0 KHz, AС3, 2 (L,R) ch, ~192.00 kbps avg |R5|
Аудио #2: Russian 48.0 KHz, AС3, 2 (L,R) ch, ~192.00 kbps avg |Сербин|
Субтитры: нет-Релиз
Рип и синхронизация аудио - whip93.Сравнения с исходникомSource vs. Encode


MediaInfo | x264 logx264 log---[Information] [29.01.2017 10:36:19] raw [info]: 840x456p 1:1 @ 24000/1001 fps (cfr)
---[Information] [29.01.2017 10:36:19] x264 [info]: using SAR=1/1
---[Information] [29.01.2017 10:36:19] x264 [info]: using cpu capabilities: MMX2 SSE2Fast SSSE3 SSE4.2 AVX
---[Information] [29.01.2017 10:36:19] x264 [info]: profile High, level 4.1
---[Information] [29.01.2017 15:23:55] x264 [info]: frame I:896 Avg QP:17.15 size: 65594
---[Information] [29.01.2017 15:23:55] x264 [info]: frame P:30234 Avg QP:20.00 size: 19360
---[Information] [29.01.2017 15:23:55] x264 [info]: frame B:102502 Avg QP:21.83 size: 6424
---[Information] [29.01.2017 15:23:55] x264 [info]: consecutive B-frames: 1.7% 2.5% 7.9% 32.5% 18.6% 29.9% 4.1% 1.5% 0.6% 0.2% 0.2% 0.1% 0.1% 0.1%
---[Information] [29.01.2017 15:23:55] x264 [info]: mb I I16..4: 2.7% 81.2% 16.1%
---[Information] [29.01.2017 15:23:55] x264 [info]: mb P I16..4: 0.5% 9.1% 1.1% P16..4: 32.7% 38.4% 14.5% 1.5% 0.2% skip: 2.0%
---[Information] [29.01.2017 15:23:55] x264 [info]: mb B I16..4: 0.1% 1.1% 0.1% B16..8: 36.3% 21.3% 3.2% direct: 7.4% skip:30.5% L0:41.9% L1:42.8% BI:15.3%
---[Information] [29.01.2017 15:23:55] x264 [info]: 8x8 transform intra:84.6% inter:71.2%
---[Information] [29.01.2017 15:23:55] x264 [info]: coded y,uvDC,uvAC intra: 89.9% 94.6% 80.3% inter: 27.1% 39.6% 10.5%
---[Information] [29.01.2017 15:23:55] x264 [info]: i16 v,h,dc,p: 41% 15% 5% 39%
---[Information] [29.01.2017 15:23:55] x264 [info]: i8 v,h,dc,ddl,ddr,vr,hd,vl,hu: 14% 9% 5% 9% 14% 13% 13% 12% 12%
---[Information] [29.01.2017 15:23:55] x264 [info]: i4 v,h,dc,ddl,ddr,vr,hd,vl,hu: 15% 10% 3% 8% 15% 15% 13% 11% 11%
---[Information] [29.01.2017 15:23:55] x264 [info]: i8c dc,h,v,p: 46% 20% 20% 14%
---[Information] [29.01.2017 15:23:55] x264 [info]: Weighted P-Frames: Y:7.7% UV:2.0%
---[Information] [29.01.2017 15:23:55] x264 [info]: ref P L0: 39.8% 12.9% 18.5% 6.1% 5.8% 3.9% 3.9% 1.9% 2.0% 1.5% 1.7% 1.5% 0.3% 0.0%
---[Information] [29.01.2017 15:23:55] x264 [info]: ref B L0: 72.4% 11.8% 5.2% 2.9% 2.0% 1.9% 1.4% 0.9% 0.8% 0.5% 0.3%
---[Information] [29.01.2017 15:23:55] x264 [info]: ref B L1: 93.6% 6.4%
---[Information] [29.01.2017 15:23:55] x264 [info]: kb/s:1869.69
---[Information] [29.01.2017 15:23:55] encoded 133632 frames, 7.74 fps, 1869.69 kb/s
General
Unique ID : 193677315482258555627441792793360419873 (0x91B4E4E698009F6581F22C18E15F4C21)
Complete name : H:\Fuzz.1972.HDRip.DD2.0.x264.-whip93.mkv
Format : Matroska
Format version : Version 4 / Version 2
File size : 1.46 GiB
Duration : 1h 32mn
Overall bit rate : 2 256 Kbps
Movie name : Недотёпы | Fuzz (1972) - Release by whip93
Encoded date : UTC 2017-01-30 07:18:49
Writing application : mkvmerge v6.1.0 ('Old Devil') built on Mar 4 2013 09:10:42
Writing library : libebml v1.3.0 + libmatroska v1.4.0
Attachements : cover.jpg
Video
ID : 1
Format : AVC
Format/Info : Advanced Video Codec
Format profile : High@L4.1
Format settings, CABAC : Yes
Format settings, ReFrames : 12 frames
Codec ID : V_MPEG4/ISO/AVC
Duration : 1h 32mn
Bit rate : 1 870 Kbps
Width : 840 pixels
Height : 456 pixels
Display aspect ratio : 1.85:1
Frame rate mode : Constant
Frame rate : 23.976 fps
Color space : YUV
Chroma subsampling : 4:2:0
Bit depth : 8 bits
Scan type : Progressive
Bits/(Pixel*Frame) : 0.204
Stream size : 1.19 GiB (81%)
Title : Encoded by whip93
Writing library : x264 core 148 r2638 7599210
Encoding settings : cabac=1 / ref=12 / deblock=1:-3:-3 / analyse=0x3:0x133 / me=umh / subme=11 / psy=1 / psy_rd=1.00:0.08 / mixed_ref=1 / me_range=64 / chroma_me=1 / trellis=2 / 8x8dct=1 / cqm=0 / deadzone=21,11 / fast_pskip=1 / chroma_qp_offset=-6 / threads=12 / lookahead_threads=3 / sliced_threads=0 / nr=0 / decimate=1 / interlaced=0 / bluray_compat=0 / constrained_intra=0 / bframes=13 / b_pyramid=2 / b_adapt=2 / b_bias=0 / direct=1 / weightb=1 / open_gop=0 / weightp=2 / keyint=240 / keyint_min=23 / scenecut=40 / intra_refresh=0 / rc_lookahead=60 / rc=2pass / mbtree=1 / bitrate=1870 / ratetol=1.0 / qcomp=0.72 / qpmin=0 / qpmax=69 / qpstep=4 / cplxblur=20.0 / qblur=0.5 / vbv_maxrate=62500 / vbv_bufsize=78125 / nal_hrd=none / filler=0 / ip_ratio=1.40 / aq=1:0.80
Language : English
Default : Yes
Forced : No
Color range : Limited
Color primaries : BT.709
Transfer characteristics : BT.709
Matrix coefficients : BT.709
Audio #1
ID : 2
Format : AC-3
Format/Info : Audio Coding 3
Mode extension : CM (complete main)
Format settings, Endianness : Big
Codec ID : A_AC3
Duration : 1h 32mn
Bit rate mode : Constant
Bit rate : 192 Kbps
Channel(s) : 2 channels
Channel positions : Front: L R
Sampling rate : 48.0 KHz
Compression mode : Lossy
Stream size : 128 MiB (9%)
Title : MVO (Image Art)
Language : Russian
Default : Yes
Forced : No
Audio #2
ID : 3
Format : AC-3
Format/Info : Audio Coding 3
Mode extension : CM (complete main)
Format settings, Endianness : Big
Codec ID : A_AC3
Duration : 1h 32mn
Bit rate mode : Constant
Bit rate : 192 Kbps
Channel(s) : 2 channels
Channel positions : Front: L R
Sampling rate : 48.0 KHz
Compression mode : Lossy
Stream size : 128 MiB (9%)
Title : AVO (Ю. Сербин)
Language : Russian
Default : No
Forced : No
Menu
00:00:00.000 : en:00:00:00.000
00:13:21.091 : en:00:13:21.091
00:23:30.866 : en:00:23:30.866
00:32:17.352 : en:00:32:17.352
00:40:25.797 : en:00:40:25.797
00:50:59.264 : en:00:50:59.264
01:02:09.599 : en:01:02:09.599
01:18:59.192 : en:01:18:59.192
01:33:14.587 : en:01:33:14.587

Скриншоты

-


[torrentc.info]_torrent-5349532.torrent
Торрент: Зарегистрирован ·  [ 2017-02-14 13:48 ] ·  766e91d25037455f3eb252f9e4a24414ddf3e2ae

59 KB

Статус: проверено
Скачан: 0 раз
Размер: 1.46 GB
Оценка: 
(Голосов: 0)
Сказали спасибо: 0  Спасибо
Похожие темы
[Профиль]    [ЛС]
Показать сообщения:    
Ответить на тему

Текущее время: Сегодня 23:42

Часовой пояс: GMT + 7



Вы не можете начинать темы
Вы не можете отвечать на сообщения
Вы не можете редактировать свои сообщения
Вы не можете удалять свои сообщения
Вы не можете голосовать в опросах
Вы не можете прикреплять файлы к сообщениям
Вы можете скачивать файлы