Последний бой Шанго / Shango, la pistola infallibile (Эдуардо Мулагрия / Edoardo Mulargia) [1970, Италия, боевик, драма, вестерн, DVDRip] VO (Артем Мосин - Щепачев) + Sub Eng Rus (Свен Железнов) + Original Ita

Ответить на тему
Статистика раздачи [Обновить пиров]
Размер:  1.47 GB   |    Зарегистрирован:  1 год 10 месяцев   |    Скачан:  0 раз

Полного источника не было: Никогда

 
   
 
 
 
Автор Сообщение

torrentc.info

Создавать темы 14-Фев-2017 13:48

[Цитировать]

Последний бой Шанго / Shango, la pistola infallibile
Страна: Италия
Студия: Produzioni Atlas Consorziate (P.A.C.), Società Europea Produzioni Associate Cinematografiche (SEPAC)
Жанр: боевик, драма, вестерн
Год выпуска: 1970
Продолжительность: 01:22:50
Перевод: Одноголосый закадровый - Артем Мосин - Щепачев
Cубтитры: английские, русские(Свен Железнов)
Оригинальная аудиодорожка: итальянский
Режиссер: Эдуардо Мулагрия / Edoardo Mulargia (as Edward G. Muller)
В ролях: Энтони Штеффен, Эдуардо Фахардо, Морис Поли, Барбара Нелли, Валерио Фьораванти, Аттилио Доттезио, Массимо Кароччи, Спартако Конверси, Лиана Дель Бальцо, Анджело Десси ...
Описание: Война между Севером и Югом закончилась. Но в затерянной среди песков мексиканской деревне бои продолжаются. Техасский рейнджер Шанго пытается положить смертям конец. С каждой новой попыткой количество трупов вокруг него растет в геометрической прогрессии.
Доп. информация: Рип сделан из этого [url=viewtopic.php?t=5348260]DVD9[/url]
.-- --Фильм переведен и озвучен специально для: 7букв Вестерн / группа Джесси Джеймса
Отдельная благодарность [url=profile.php?mode=viewprofile&u=40632995]Alassea[/url] за предоставленную русскую звуковую дорожку и субтитры.
Перевод: Свен Железнов.
Закадровый текст: Артем Мосин - Щепачев.--Shango, la pistola infallibile_(1970)_DVDRip_Sample_.avi--Качество видео: DVDRip
Формат видео: AVI
Видео: 704x304 (2.32:1), 25 fps, XviD build 73 ~2132 kbps avg, 0.40 bit/pixel
Аудио 1: 48 kHz, AC3 Dolby Digital, 2/0 (L,R) ch, ~192 kbps, Русский
Аудио 2: 48 kHz, AC3 Dolby Digital, 2/0 (L,R) ch, ~192 kbps, Итальянский
Формат субтитров: softsub (SRT)

AviInfo

File: Shango, la pistola infallibile_(1970)_DVDRip_.avi
Title: Shango, la pistola infallibile (1970)
Author: Edoardo Mulargia (as Edward G. Muller)
Copyleft: Ripped_by_rjhlb777
Genre: Action, Drama, Western
Category: Movie
Comment: VO (Артем Мосин - Щепачев) + Original Ita
FileSize: 1500.19 Mb ( 1 573 060 608 bytes )
Play length: 01:22:50.040 (124251 frames)
Subtitles: ENG_, RUS_(Sven Zheleznov)_ (SubRip format)
Video: 704x304 (2.32:1), 25 fps, XviD build 73 ~2132 kbps avg, 0.40 bit/pixel
Audio #1: 48 kHz, AC3 Dolby Digital, 2/0 (L,R) ch, ~192 kbps
Audio #2: 48 kHz, AC3 Dolby Digital, 2/0 (L,R) ch, ~192 kbps

MediaInfo

General
Complete name : I:\111\Shango, la pistola infallibile_(1970)_DVDRip_\Shango, la pistola infallibile_(1970)_DVDRip_.avi
Format : AVI
Format/Info : Audio Video Interleave
File size : 1.47 GiB
Duration : 1 h 22 min
Overall bit rate : 2 532 kb/s
Movie name : Shango, la pistola infallibile (1970)
Director : Edoardo Mulargia (as Edward G. Muller)
Genre : Action, Drama, Western
Writing application : VirtualDubMod 1.5.10.3 | www.virtualdub-fr.org || (build 2550/release)
Original source form/Name : Movie
Copyright : Ripped_by_rjhlb777
Comment : VO (Артем Мосин - Щепачев) + Original Ita
Video
ID : 0
Format : MPEG-4 Visual
Format profile : Advanced Simple@L5
Format settings, BVOP : 1
Format settings, QPel : No
Format settings, GMC : No warppoints
Format settings, Matrix : Custom
Codec ID : XVID
Codec ID/Hint : XviD
Duration : 1 h 22 min
Bit rate : 2 134 kb/s
Width : 704 pixels
Height : 304 pixels
Display aspect ratio : 2.35:1
Frame rate : 25.000 FPS
Color space : YUV
Chroma subsampling : 4:2:0
Bit depth : 8 bits
Scan type : Progressive
Compression mode : Lossy
Bits/(Pixel*Frame) : 0.399
Stream size : 1.23 GiB (84%)
Writing library : XviD 73
Audio #1
ID : 1
Format : AC-3
Format/Info : Audio Coding 3
Mode extension : CM (complete main)
Format settings, Endianness : Big
Codec ID : 2000
Duration : 1 h 22 min
Bit rate mode : Constant
Bit rate : 192 kb/s
Channel(s) : 2 channels
Channel positions : Front: L R
Sampling rate : 48.0 kHz
Frame rate : 31.250 FPS (1536 spf)
Bit depth : 16 bits
Compression mode : Lossy
Stream size : 114 MiB (8%)
Alignment : Split accross interleaves
Interleave, duration : 40 ms (1.00 video frame)
Interleave, preload duratio : 500 ms
Audio #2
ID : 2
Format : AC-3
Format/Info : Audio Coding 3
Mode extension : CM (complete main)
Format settings, Endianness : Big
Codec ID : 2000
Duration : 1 h 22 min
Bit rate mode : Constant
Bit rate : 192 kb/s
Channel(s) : 2 channels
Channel positions : Front: L R
Sampling rate : 48.0 kHz
Frame rate : 31.250 FPS (1536 spf)
Bit depth : 16 bits
Compression mode : Lossy
Stream size : 114 MiB (8%)
Alignment : Split accross interleaves
Interleave, duration : 40 ms (1.00 video frame)
Interleave, preload duratio : 500 ms


[torrentc.info]_torrent-5348290.torrent
Торрент: Зарегистрирован ·  [ 2017-02-14 13:48 ] ·  3f68fc57c6cfdf6621ab66372e4627c3952baea4

15 KB

Статус: проверено
Скачан: 0 раз
Размер: 1.47 GB
Оценка: 
(Голосов: 0)
Сказали спасибо: 0  Спасибо
Похожие темы
[Профиль]    [ЛС]
Показать сообщения:    
Ответить на тему

Текущее время: Сегодня 23:42

Часовой пояс: GMT + 7



Вы не можете начинать темы
Вы не можете отвечать на сообщения
Вы не можете редактировать свои сообщения
Вы не можете удалять свои сообщения
Вы не можете голосовать в опросах
Вы не можете прикреплять файлы к сообщениям
Вы можете скачивать файлы