Спаун / Выродок / Spawn (Марк А.З. Диппе / Mark A.Z. Dippe) [1997, США, ужасы, боевик, триллер, HDRip] AVO (Андрей Гаврилов) + Original Eng + Sub (Rus, Eng)

Ответить на тему
Статистика раздачи [Обновить пиров]
Размер:  1.45 GB   |    Зарегистрирован:  1 год 9 месяцев   |    Скачан:  0 раз

Полного источника не было: Никогда

 
   
 
 
 
Автор Сообщение

torrentc.info

Создавать темы 14-Фев-2017 13:48

[Цитировать]

Спаун / Выродок / Spawn
Страна: США
Жанр: ужасы, боевик, триллер
Год выпуска: 1997
Продолжительность: 01:38:38
Перевод: Авторский (одноголосый закадровый) Андрей Гаврилов
Cубтитры: Русские / Английские (отдельно)
Оригинальная аудиодорожка: Английский
Режиссер: Марк А.З. Диппе / Mark A.Z. Dippe
В ролях: Джон Легуизамо, Тереза Рэндл, Майкл Дж. Уайт, Мартин Шин, Мелинда Кларк, Д. Б. Суини, Никол Уильямсон, Мико Хьюз, Майкл Пападжон, Робиа ЛаМорте, Джон Котрэн мл.,
Описание: В жизни может приключиться разное. С Элом Симмонсом случилось нечто, что не поддается внятному человеческому объяснению. Он – «Краповый берет». Исполняя служебную миссию, он был убит собственным же начальником. Но на этом существование и жизнь героя не прекратились. Теперь он становится очередным жителем ужасающего чистилища. Оттуда вряд ли возможно выбраться, если только не заключить сделку с его всемогущим хозяином - Дьяволом. Что Эл опрометчиво и делает. Его новый загробный босс требует совсем немного. Элу кажется, что более выгодного и перспективного предложения ему никто не делал еще в его жизни. Он отправляется прямо из чистилища в свой любимый дом, нагруженный сильнейшим оружием и мощными доспехами. А взамен будет всячески способствовать проникновению зла в мир. Но герой фильма «Спаун» не учел того, что величайшая дьявольская сила была дарована ему неспроста. Дьявол намеревается поработить человеческий мир его руками. Эл же, выбравшись из чистилища, решается на рисковый и не совсем обдуманный поступок. Он намеревается разорвать контракт, цена которому – жизнь…
Сэмпл: http://multi-up.com/1140509
Качество видео: HDRip (Исходник Spawn (Director's Cut). 1997. BDRip 1080p.mkv)
Формат видео: AVI
Видео: XviD 73, 720x400, (16:9), 23,976 fps, 1702 Кбит/с, 0.24 bit/pixel
Аудио: Русский (АС3, 2 ch (Front: L R), 48,0 KHz, 192 Kbps)
Аудио 2: Английский (АС3, 2 ch (Front: L R), 48,0 KHz, 192 Kbps)

MediaInfo

Общее
Полное имя : F:\Видеофильмы\В и д е о\Спаун_(боевик, ужасы 1997 год)_Leonard_Lew\Спаун_(боевик, ужасы 1997 год)_Leonard_Lew.avi
Формат : AVI
Формат/Информация : Audio Video Interleave
Размер файла : 1,45 Гбайт
Продолжительность : 1 ч. 38 м.
Общий поток : 2100 Кбит/сек
Программа кодирования : VirtualDubMod 1.5.10.3 | www.virtualdub-fr.org || (build 2550/release)
Библиотека кодирования : VirtualDubMod build 2550/release
Видео
Идентификатор : 0
Формат : MPEG-4 Visual
Профиль формата : Advanced Simple@L5
Параметр BVOP формата : 2
Параметр QPel формата : Нет
Параметр GMC формата : Без точки перехода
Параметр матрицы формата : Выборочная
Идентификатор кодека : XVID
Идентификатор кодека/Подсказка : XviD
Продолжительность : 1 ч. 38 м.
Битрейт : 1702 Кбит/сек
Ширина : 720 пикселей
Высота : 400 пикселей
Соотношение сторон : 16:9
Частота кадров : 23,976 (23976/1000) кадра/сек
Цветовое пространство : YUV
Субдискретизация насыщенности : 4:2:0
Битовая глубина : 8 бит
Тип развёртки : Прогрессивная
Метод сжатия : С потерями
Бит/(Пиксели*Кадры) : 0.246
Размер потока : 1,17 Гбайт (81%)
Библиотека кодирования : XviD 73
Аудио #1
Идентификатор : 1
Формат : AC-3
Формат/Информация : Audio Coding 3
Расширение режима : CM (complete main)
Параметр Endianness формата : Big
Идентификатор кодека : 2000
Продолжительность : 1 ч. 38 м.
Вид битрейта : Постоянный
Битрейт : 192 Кбит/сек
Каналы : 2 канала
Расположение каналов : Front: L R
Частота : 48,0 КГц
Частота кадров : 31,250 кадров/сек (1536 spf)
Метод сжатия : С потерями
Размер потока : 135 Мбайт (9%)
Выравнивание : Разделение по промежуткам
Продолжительность промежутка : 42 мс. (1,00 видеокадр)
Время предзагрузки промежутка : 500 мс.
Аудио #2
Идентификатор : 2
Формат : AC-3
Формат/Информация : Audio Coding 3
Расширение режима : CM (complete main)
Параметр Endianness формата : Big
Идентификатор кодека : 2000
Продолжительность : 1 ч. 38 м.
Вид битрейта : Постоянный
Битрейт : 192 Кбит/сек
Каналы : 2 канала
Расположение каналов : Front: L R
Частота : 48,0 КГц
Частота кадров : 31,250 кадров/сек (1536 spf)
Метод сжатия : С потерями
Размер потока : 135 Мбайт (9%)
Выравнивание : Разделение по промежуткам
Продолжительность промежутка : 42 мс. (1,00 видеокадр)
Время предзагрузки промежутка : 500 мс.

Скриншот c названием фильма

Скриншоты

Сравнение[url=viewtopic.php?t=3232690]http://torrentc/forum/viewtopic.php?t=3232690[/url]


[torrentc.info]_torrent-5356851.torrent
Торрент: Зарегистрирован ·  [ 2017-02-14 13:48 ] ·  c44fb1c6625a98505b7ee3453d01bccc8d5006f8

15 KB

Статус: проверено
Скачан: 0 раз
Размер: 1.45 GB
Оценка: 
(Голосов: 0)
Сказали спасибо: 0  Спасибо
Похожие темы
[Профиль]    [ЛС]
Показать сообщения:    
Ответить на тему

Текущее время: Сегодня 15:44

Часовой пояс: GMT + 7



Вы не можете начинать темы
Вы не можете отвечать на сообщения
Вы не можете редактировать свои сообщения
Вы не можете удалять свои сообщения
Вы не можете голосовать в опросах
Вы не можете прикреплять файлы к сообщениям
Вы можете скачивать файлы