Операция Золотой Феникс / Operation Golden Phoenix (Джалал Мерхи / Jalal Merhi) [1994, Ливан, Канада, боевик, LDRip] AVO (Алексеев) + Original Eng

Ответить на тему
Статистика раздачи [Обновить пиров]
Размер:  1.45 GB   |    Зарегистрирован:  1 год 9 месяцев   |    Скачан:  0 раз

Полного источника не было: Никогда

 
   
 
 
 
Автор Сообщение

torrentc.info

Создавать темы 14-Фев-2017 13:48

[Цитировать]

Операция Золотой Феникс / Operation Golden Phoenix
Страна: Ливан, Канада
Жанр: Боевик
Год выпуска: 1994
Продолжительность: 01:31:39
Перевод: Авторский (одноголосый закадровый) Алексеев
Cубтитры: нет
Оригинальная аудиодорожка: английский
Режиссер: Джалал Мерхи / Jalal Merhi
В ролях: Джалал Мерхи, Лорен Аведон, Йозеф Абед-Альнур, Андре Абуасли, Ахмад Абу Хайдар, Бассам Абу Хайдар, Николь Бардавил, Рэнди Батчер, Энрико Чин, Нильс Кристенсен
Описание: Марк, бывший агент ЦРУ, получил задание обеспечить доставку в музей Торонто главной достопримечательности десятилетия — кулона «Золотой феникс». По дороге из аэропорта на конвой было совершено дерзкое нападение, все люди Марка безжалостно расстреляны, а «Золотой феникс» похищен. Кто украл «Золотой феникс» с его неразгаданными секретами и почему многие мечтают любой ценой овладеть им?
Марку, арестованному по подозрению в организации похищения, удается бежать и теперь он должен очистить себя от обвинений и отомстить за смерть своих людей. Чтобы выйти на след, Марк отправляется в Ливан на искореженные снарядами улицы Бейрута. Он должен по кусочкам собрать всю информацию и вернуть «Золотой феникс».
Доп. информация: Звук с АРУЗом
Сэмпл: http://sendfile.su/1308074
Качество видео: LDRip
Формат видео: AVI
Видео: 640x480 (1.33:1), 23.976 fps, DivX Codec 6.8.5/6.9.1 ~1867 kbps avg, 0.25 bit/pixel
Аудио: 48 kHz, AC3 Dolby Digital, 2/0 (L,R) ch, ~192 kbps
Аудио 2: 48 kHz, AC3 Dolby Digital, 2/0 (L,R) ch, ~192 kbps

MediaInfo

Формат : AVI
Формат/Информация : Audio Video Interleave
Размер файла : 1,45 Гбайт
Продолжительность : 1 ч. 31 м.
Общий поток : 2266 Кбит/сек
Видео
Идентификатор : 0
Формат : MPEG-4 Visual
Параметр BVOP формата : 1
Параметр QPel формата : Нет
Параметр GMC формата : Без точки перехода
Параметр матрицы формата : Default (H.263)
Идентификатор кодека : DX50
Идентификатор кодека/Подсказка : DivX 5
Продолжительность : 1 ч. 31 м.
Битрейт : 1868 Кбит/сек
Ширина : 640 пикселей
Высота : 480 пикселей
Соотношение сторон : 4:3
Частота кадров : 23,976 кадра/сек
Цветовое пространство : YUV
Субдискретизация насыщенности : 4:2:0
Битовая глубина : 8 бит
Тип развёртки : Прогрессивная
Метод сжатия : С потерями
Бит/(Пиксели*Кадры) : 0.254
Размер потока : 1,20 Гбайт (82%)
Библиотека кодирования : DivX 6.8.5 (UTC 2009-08-20)
Аудио #1
Идентификатор : 1
Формат : AC-3
Формат/Информация : Audio Coding 3
Расширение режима : CM (complete main)
Параметр Endianness формата : Big
Идентификатор кодека : 2000
Продолжительность : 1 ч. 31 м.
Вид битрейта : Постоянный
Битрейт : 192 Кбит/сек
Каналы : 2 канала
Расположение каналов : Front: L R
Частота : 48,0 КГц
Частота кадров : 31,250 кадров/сек (1536 spf)
Метод сжатия : С потерями
Задержка видео : 25 мс.
Размер потока : 126 Мбайт (8%)
Выравнивание : Разделение по промежуткам
Продолжительность промежутка : 42 мс. (1,00 видеокадр)
Время предзагрузки промежутка : 500 мс.
Аудио #2
Идентификатор : 2
Формат : AC-3
Формат/Информация : Audio Coding 3
Расширение режима : CM (complete main)
Параметр Endianness формата : Big
Идентификатор кодека : 2000
Продолжительность : 1 ч. 31 м.
Вид битрейта : Постоянный
Битрейт : 192 Кбит/сек
Каналы : 2 канала
Расположение каналов : Front: L R
Частота : 48,0 КГц
Частота кадров : 31,250 кадров/сек (1536 spf)
Метод сжатия : С потерями
Размер потока : 126 Мбайт (8%)
Выравнивание : Соединение по промежуткам
Продолжительность промежутка : 42 мс. (1,00 видеокадр)
Время предзагрузки промежутка : 512 мс.

Скриншоты



[torrentc.info]_torrent-5355224.torrent
Торрент: Зарегистрирован ·  [ 2017-02-14 13:48 ] ·  2c5543ccffeff1188519162de722f2d46c5ebef1

29 KB

Статус: проверено
Скачан: 0 раз
Размер: 1.45 GB
Оценка: 
(Голосов: 0)
Сказали спасибо: 0  Спасибо
Похожие темы
[Профиль]    [ЛС]
Показать сообщения:    
Ответить на тему

Текущее время: Сегодня 16:40

Часовой пояс: GMT + 7



Вы не можете начинать темы
Вы не можете отвечать на сообщения
Вы не можете редактировать свои сообщения
Вы не можете удалять свои сообщения
Вы не можете голосовать в опросах
Вы не можете прикреплять файлы к сообщениям
Вы можете скачивать файлы