Пожиратель змей 3: Его закон / Snake Eater III: His Law (Джордж Эршбэймер / George Erschbamer) [1992, Канада, Боевик, DVDRip] AVO (Андрей Гаврилов) + Original Eng

Ответить на тему
Статистика раздачи [Обновить пиров]
Размер:  1.41 GB   |    Зарегистрирован:  1 год 9 месяцев   |    Скачан:  0 раз

Полного источника не было: Никогда

 
   
 
 
 
Автор Сообщение

torrentc.info

Создавать темы 14-Фев-2017 13:49

[Цитировать]

Пожиратель змей 3: Его закон / Snake Eater III: His Law
Страна: Канада
Жанр: Боевик
Год выпуска: 1992
Продолжительность: 1:31:08
Перевод: Авторский (одноголосый закадровый) Андрей Гаврилов
Cубтитры: нет
Оригинальная аудиодорожка: английский
Режиссер: Джордж Эршбэймер / George Erschbamer
В ролях: Лоренцо Ламас
Майнор Мастейн
Трэйси Кук
Холли Честер
Трэйси Хвэй
Уна Кэй
Гордон Эткинсон
Уолкер Бун
Крис Бенсон
Скотт Бигелоу
Описание: Лоренцо Ламас снова на экране в роли Пожирателя змей в третьем, самом «крутом», боевике. Капитан Солдиер Келли не может оставаться на стороне закона. Пожиратель змей, остановив грабеж наркотиков, выбывает из игры, но снова оказывается в центре событий, после того как его дочь была жестоко избита бандой рокеров, под устрашающим названием Фурии Ада.
Они объявили приговор Пожирателю змей. С помощью бывшего рокера по прозвищу Ковбой Пожиратель змей начинает войну с бандой и ее главарем. Он уверен, что только так сможет восстановить справедливость.
Доп. информация: За звуковую дорожку А. Гаврилова спасибо alenavova
Видеоряд найден в сети
Звуковая дорожка не подвергалась синхронизации , была добавлена к видеоряду.
Сэмпл: https://yadi.sk/i/mzIGDCt83D47jx
Качество видео: DVDRip
Формат видео: AVI
Видео: XviD , 640x480 (1.33:1) , 23.976 fps , 1 876 Kbps
Аудио: MP3 , 48 kHz , 128.00 kbps avg , 2/0 (L,R) ch
Аудио 2: AC3 , 48 kHz , 192.00 kbps avg , 2/0 (L,R) ch

MediaInfo

Complete name Пожиратель змей 3 1992 (Gavrilov).avi
Format : AVI
Format/Info : Audio Video Interleave
File size : 1.41 GiB
Duration : 1h 31mn
Overall bit rate : 2 210 Kbps
Writing application : VirtualDubMod 1.5.10.3 | www.virtualdub-fr.org || (build 2550/release)
Writing library : VirtualDubMod build 2550/release
Video
ID : 0
Format : MPEG-4 Visual
Format profile : Advanced Simple@L5
Format settings, BVOP : 1
Format settings, QPel : No
Format settings, GMC : No warppoints
Format settings, Matrix : Custom
Codec ID : XVID
Codec ID/Hint : XviD
Duration : 1h 31mn
Bit rate : 1 876 Kbps
Width : 640 pixels
Height : 480 pixels
Display aspect ratio : 4:3
Frame rate : 23.976 (24000/1001) fps
Color space : YUV
Chroma subsampling : 4:2:0
Bit depth : 8 bits
Scan type : Progressive
Compression mode : Lossy
Bits/(Pixel*Frame) : 0.255
Stream size : 1.19 GiB (85%)
Writing library : XviD 73
Audio #1
ID : 1
Format : MPEG Audio
Format version : Version 1
Format profile : Layer 3
Mode : Joint stereo
Mode extension : MS Stereo
Codec ID : 55
Codec ID/Hint : MP3
Duration : 1h 31mn
Bit rate mode : Constant
Bit rate : 128 Kbps
Channel(s) : 2 channels
Sampling rate : 48.0 KHz
Compression mode : Lossy
Stream size : 83.4 MiB (6%)
Alignment : Split accross interleaves
Interleave, duration : 42 ms (1.00 video frame)
Interleave, preload duratio : 500 ms
Audio #2
ID : 2
Format : AC-3
Format/Info : Audio Coding 3
Mode extension : CM (complete main)
Format settings, Endianness : Big
Codec ID : 2000
Duration : 1h 31mn
Bit rate mode : Constant
Bit rate : 192 Kbps
Channel(s) : 2 channels
Channel positions : Front: L R
Sampling rate : 48.0 KHz
Frame rate : 31.250 fps (1536 spf)
Compression mode : Lossy
Stream size : 125 MiB (9%)
Alignment : Split accross interleaves
Interleave, duration : 42 ms (1.00 video frame)
Interleave, preload duratio : 500 ms


[torrentc.info]_torrent-5353062.torrent
Торрент: Зарегистрирован ·  [ 2017-02-14 13:48 ] ·  724ee6092bbb835560c6770bd7ae2ea4a5336839

15 KB

Статус: проверено
Скачан: 0 раз
Размер: 1.41 GB
Оценка: 
(Голосов: 0)
Сказали спасибо: 0  Спасибо
Похожие темы
[Профиль]    [ЛС]
Показать сообщения:    
Ответить на тему

Текущее время: Сегодня 16:34

Часовой пояс: GMT + 7



Вы не можете начинать темы
Вы не можете отвечать на сообщения
Вы не можете редактировать свои сообщения
Вы не можете удалять свои сообщения
Вы не можете голосовать в опросах
Вы не можете прикреплять файлы к сообщениям
Вы можете скачивать файлы