Снайпер / Sniper (Луис Ллоса / Luis Llosa) [1992, США, боевик, приключения, драма, BDRip] AVO (Андрей Гаврилов) + AVO (Василий Горчаков) + AVO (Леонид Володарский) + Sub (Rus, Eng)

Ответить на тему
Статистика раздачи [Обновить пиров]
Размер:  1.45 GB   |    Зарегистрирован:  1 год 10 месяцев   |    Скачан:  0 раз

Полного источника не было: Никогда

 
   
 
 
 
Автор Сообщение

torrentc.info

Создавать темы 14-Фев-2017 13:49

[Цитировать]

Снайпер / Sniper
Страна: США
Жанр: боевик, приключения, драма
Год выпуска: 1992
Продолжительность: 01:39:01
Перевод: Авторский (одноголосый закадровый) Андрей Гаврилов
Перевод 2: Авторский (одноголосый закадровый) Василий Горчаков
Перевод 3: Авторский (одноголосый закадровый) Леонид Володарский
Cубтитры: Русские / Английские (отдельно)
Режиссер: Луис Ллоса / Luis Llosa
В ролях: Том Беренджер, Билли Зейн, Дж.Т. Уолш, Аден Янг, Кен Рэдли, Рейнальдо Аренас, Гэри Суонсон, Хэнк Гаррет, Фредерик Миральотта, Ванесса Стил, Карлос Алварез, Тайлер Коппин, Тео Геберт, Эдвард Уайли, Уильям Куртин, Ховард Боссе, Дон Бейти, Радж Сидху, Рой Эдмондс, Джонни Раен, Лури Кортез, Хорхе Бустаманте, Рекс Линн, Энтони Сзето
Описание: Том и Ричард – два снайпера – получают новое задание: -- отправиться в джунгли Центральной Америки с целью уничтожения базы колумбийских торговцев наркотиками. Их задача – ликвидировать того, кто стоит во главе банды, ведь иначе торговля наркотиками никогда не будет остановлена. Задание сложное, и ошибиться не будет права, ведь есть только одна возможность выстрелить. А значит Том и Ричард должны вместе не только пройти опасные джунгли, но и найти понимание относительно осуществления данной операции.....
Сэмпл: http://multi-up.com/1139134
Качество видео: BDRip (Исходник Blu-Ray Remux (1080p) / torrentc)
Формат видео: AVI
Видео: XviD 73, 720x384, (1,85:1), 23,976 fps, 1503 Кбит/с, 0.22 bit/pixel
Аудио: Русский (АС3, 2 ch (Front: L R), 48,0 KHz, 192 Kbps)
Аудио 2: Русский (АС3, 2 ch (Front: L R), 48,0 KHz, 192 Kbps)
Аудио 3: Русский (АС3, 2 ch (Front: L R), 48,0 KHz, 192 Kbps)

MediaInfo

Общее
Полное имя : F:\Видеофильмы\В и д е о\Снайпер (супербоевик Том Беренджер 1992 год).avi
Формат : AVI
Формат/Информация : Audio Video Interleave
Размер файла : 1,45 Гбайт
Продолжительность : 1 ч. 39 м.
Общий поток : 2099 Кбит/сек
Программа кодирования : VirtualDubMod 1.5.10.3 | www.virtualdub-fr.org || (build 2550/release)
Библиотека кодирования : VirtualDubMod build 2550/release
Видео
Идентификатор : 0
Формат : MPEG-4 Visual
Профиль формата : Advanced Simple@L5
Параметр BVOP формата : 2
Параметр QPel формата : Нет
Параметр GMC формата : Без точки перехода
Параметр матрицы формата : Выборочная
Идентификатор кодека : XVID
Идентификатор кодека/Подсказка : XviD
Продолжительность : 1 ч. 39 м.
Битрейт : 1503 Кбит/сек
Ширина : 720 пикселей
Высота : 384 пикселя
Соотношение сторон : 1,85:1
Частота кадров : 23,976 (23976/1000) кадра/сек
Цветовое пространство : YUV
Субдискретизация насыщенности : 4:2:0
Битовая глубина : 8 бит
Тип развёртки : Прогрессивная
Метод сжатия : С потерями
Бит/(Пиксели*Кадры) : 0.227
Размер потока : 1,04 Гбайт (72%)
Библиотека кодирования : XviD 73
Аудио #1
Идентификатор : 1
Формат : AC-3
Формат/Информация : Audio Coding 3
Расширение режима : CM (complete main)
Параметр Endianness формата : Big
Идентификатор кодека : 2000
Продолжительность : 1 ч. 39 м.
Вид битрейта : Постоянный
Битрейт : 192 Кбит/сек
Каналы : 2 канала
Расположение каналов : Front: L R
Частота : 48,0 КГц
Частота кадров : 31,250 кадров/сек (1536 spf)
Метод сжатия : С потерями
Размер потока : 136 Мбайт (9%)
Выравнивание : Разделение по промежуткам
Продолжительность промежутка : 42 мс. (1,00 видеокадр)
Время предзагрузки промежутка : 500 мс.
Аудио #2
Идентификатор : 2
Формат : AC-3
Формат/Информация : Audio Coding 3
Расширение режима : CM (complete main)
Параметр Endianness формата : Big
Идентификатор кодека : 2000
Продолжительность : 1 ч. 39 м.
Вид битрейта : Постоянный
Битрейт : 192 Кбит/сек
Каналы : 2 канала
Расположение каналов : Front: L R
Частота : 48,0 КГц
Частота кадров : 31,250 кадров/сек (1536 spf)
Метод сжатия : С потерями
Размер потока : 136 Мбайт (9%)
Выравнивание : Разделение по промежуткам
Продолжительность промежутка : 42 мс. (1,00 видеокадр)
Время предзагрузки промежутка : 500 мс.
Аудио #3
Идентификатор : 3
Формат : AC-3
Формат/Информация : Audio Coding 3
Расширение режима : CM (complete main)
Параметр Endianness формата : Big
Идентификатор кодека : 2000
Продолжительность : 1 ч. 39 м.
Вид битрейта : Постоянный
Битрейт : 192 Кбит/сек
Каналы : 2 канала
Расположение каналов : Front: L R
Частота : 48,0 КГц
Частота кадров : 31,250 кадров/сек (1536 spf)
Метод сжатия : С потерями
Размер потока : 136 Мбайт (9%)
Выравнивание : Разделение по промежуткам
Продолжительность промежутка : 42 мс. (1,00 видеокадр)
Время предзагрузки промежутка : 500 мс.

Скриншот c названием фильма

Скриншоты

Сравнение[url=viewtopic.php?t=4621797]http://torrentc/forum/viewtopic.php?t=4621797[/url]


[torrentc.info]_torrent-5352654.torrent
Торрент: Зарегистрирован ·  [ 2017-02-14 13:48 ] ·  ebed6fb9f0b1006a5a6d56973f641283c979536b

15 KB

Статус: проверено
Скачан: 0 раз
Размер: 1.45 GB
Оценка: 
(Голосов: 0)
Сказали спасибо: 0  Спасибо
Похожие темы
[Профиль]    [ЛС]
Показать сообщения:    
Ответить на тему

Текущее время: Сегодня 01:03

Часовой пояс: GMT + 7



Вы не можете начинать темы
Вы не можете отвечать на сообщения
Вы не можете редактировать свои сообщения
Вы не можете удалять свои сообщения
Вы не можете голосовать в опросах
Вы не можете прикреплять файлы к сообщениям
Вы можете скачивать файлы