Война Фрэнка Да Винчи / Da Vinci\'s War (Рэймонд Мартино / Raymond Martino) [1993, США, Боевик, DVDRip] AVO (Андрей Гаврилов)

Ответить на тему
Статистика раздачи [Обновить пиров]
Размер:  750 MB   |    Зарегистрирован:  1 год 9 месяцев   |    Скачан:  0 раз

Полного источника не было: Никогда

 
   
 
 
 
Автор Сообщение

torrentc.info

Создавать темы 14-Фев-2017 13:49

[Цитировать]

Война Фрэнка Да Винчи / Da Vinci's War
Страна: США
Жанр: Боевик
Год выпуска: 1993
Продолжительность: 1:36:19
Перевод: Авторский (одноголосый закадровый) Андрей Гаврилов
Cубтитры: нет
Режиссер: Рэймонд Мартино / Raymond Martino
В ролях: Майкл Нури
Джои Траволта
Вэнити
Джеймс Руссо
Брайан Роббинс
Ричард Форонджи
Брэнском Ричмонд
Сэм Дж. Джонс
Джек Бэннон
Флойд Левайн
Описание: На глазах у Фрэнка Да Винчи, бывшего агента спецслужб, зверски убиты сестра Энджи и ее муж. Фрэнк берет на себя заботу о племяннице Мелиссе и начинает свое собственное расследование. Он договаривается с профессиональным убийцей Смитом, чтобы тот помог отыскать преступников.
Обнаружив спрятанное в куле Мелиссы зашифрованное письмо, за которым и охотились убийцы, Фрэнк выясняет, что Энджи и ее муж были убиты во избежание утечки информации об операции по контрабанде наркотиков коррумпированными агентами ЦРУ.
Доп. информация: За звуковую дорожку А. Гаврилова спасибо Mixa_12345_mixa
Видеоряд найден в сети идентичен [url=viewtopic.php?t=1984731]http://torrentc/forum/viewtopic.php?t=1984731[/url]
Сэмпл: https://yadi.sk/i/OqyHT7P63CKE9P
Качество видео: DVDRip
Формат видео: AVI
Видео: XviD , 528x400 (1.32:1) , 23.976 fps , 887 Kbps
Аудио: AC3 , 48 kHz , 192.00 kbps avg , 2/0 (L,R) ch

MediaInfo

Complete name Война Фрэнка Да Винчи 1993 (Gavrilov).avi
Format : AVI
Format/Info : Audio Video Interleave
File size : 750 MiB
Duration : 1h 36mn
Overall bit rate : 1 089 Kbps
Writing application : VirtualDubMod 1.5.4.1 (build 2178/release)
Writing library : VirtualDub build 35491/release
Video
ID : 0
Format : MPEG-4 Visual
Format profile : Advanced Simple@L5
Format settings, BVOP : 1
Format settings, QPel : No
Format settings, GMC : No warppoints
Format settings, Matrix : Custom
Codec ID : XVID
Codec ID/Hint : XviD
Duration : 1h 36mn
Bit rate : 887 Kbps
Width : 528 pixels
Height : 400 pixels
Display aspect ratio : 4:3
Frame rate : 23.976 (23976/1000) fps
Color space : YUV
Chroma subsampling : 4:2:0
Bit depth : 8 bits
Scan type : Progressive
Compression mode : Lossy
Bits/(Pixel*Frame) : 0.175
Stream size : 611 MiB (82%)
Writing library : XviD 1.2.0.dev47 (UTC 2006-11-01)
Audio
ID : 1
Format : AC-3
Format/Info : Audio Coding 3
Mode extension : CM (complete main)
Format settings, Endianness : Big
Codec ID : 2000
Duration : 1h 36mn
Bit rate mode : Constant
Bit rate : 192 Kbps
Channel(s) : 2 channels
Channel positions : Front: L R
Sampling rate : 48.0 KHz
Frame rate : 31.250 fps (1536 spf)
Compression mode : Lossy
Stream size : 132 MiB (18%)
Alignment : Aligned on interleaves
Interleave, duration : 42 ms (1.00 video frame)
Interleave, preload duratio : 512 ms

Скриншоты



[torrentc.info]_torrent-5350808.torrent
Торрент: Зарегистрирован ·  [ 2017-02-14 13:48 ] ·  62a8a29652fe3ff7069479dd31dce138c11bba49

15 KB

Статус: проверено
Скачан: 0 раз
Размер: 750 MB
Оценка: 
(Голосов: 0)
Сказали спасибо: 0  Спасибо
Похожие темы
[Профиль]    [ЛС]
Показать сообщения:    
Ответить на тему

Текущее время: Сегодня 16:12

Часовой пояс: GMT + 7



Вы не можете начинать темы
Вы не можете отвечать на сообщения
Вы не можете редактировать свои сообщения
Вы не можете удалять свои сообщения
Вы не можете голосовать в опросах
Вы не можете прикреплять файлы к сообщениям
Вы можете скачивать файлы