Ящик смерти / Серый рыцарь / Grey Knight / The Killing Box (Джордж Хикенлупер / George Hickenlooper) [1993, США, ужасы, военный, SATRip] [теле-версия, Full Screen] AVO (Андрей Дольский)

Ответить на тему
Статистика раздачи [Обновить пиров]
Размер:  1.38 GB   |    Зарегистрирован:  1 год 9 месяцев   |    Скачан:  1 раз

Полного источника не было: 10 месяцев 6 дней

 
   
 
 
 
Автор Сообщение

torrentc.info

Создавать темы 14-Фев-2017 13:49

[Цитировать]

Ящик смерти / Серый рыцарь / Grey Knight / The Killing Box
«BE WARNED! The perfect soldiers are the ones who can not be killed!»
[теле-версия, Full Screen]
Страна: США
Жанр: ужасы, военный
Год выпуска: 1993
Продолжительность: 01:18:36
Перевод: Авторский (одноголосый закадровый) Андрей Дольский
Cубтитры: нет
Режиссер: Джордж Хикенлупер / George Hickenlooper
В ролях: Билли Боб Торнтон, Мартин Шин, Дин Камерон, Дэвид Аркетт, Алексис Аркетт, Корбин Бернсен, Адриан Пасдар, Рэй Уайз, Синда Уильямс, Роджер Уилсон
Описание: Времена Гражданской войны в США. 28 декабря 1862 года полк конфедератов попал в окружение, названное "ящиком смерти". Командир отряда, полковник Стрэйн (Бернсен) был ранен, но остался в живых. Год спустя в том же проклятом месте были зверски распяты федералисты, после чего убийства не прекращались, но погибали не только федералисты, но и конфедераты. Генерал федералистов (Шин) посылает капитана Херлинга (Пэсдар) выследить и уничтожить убийц. Но беда в том, что те, с кем им придется иметь дело, уже не были людьми. Они стали кем-то вроде зомби. Оригинальный и увлекательный фильм. (М. Иванов)
Доп. информация: Видеоряд от lord25
Дорожка с переводом Дольского от alenavova

Релиз
Сэмпл: https://yadi.sk/i/XuDMTG-q3CHo3Y
Качество видео: SATRip
Формат видео: AVI
Видео: 720x544 (1.32:1), 25 fps, XviD build 50 ~2302 kbps avg, 0.23 bit/pixel
Аудио: 48 kHz, AC3 Dolby Digital, 2/0 (L,R) ch, ~192 kbps

MediaInfo

Ящик смерти - The Killing Box [by Edich2].avi
Format : AVI
Format/Info : Audio Video Interleave
File size : 1.38 GiB
Duration : 1 h 18 min
Overall bit rate : 2 504 kb/s
Movie name : Ящик смерти - The Killing Box [by Edich2]
Director : by Edich2
Writing application : VirtualDubMod 1.5.10.2 (build 2540/release)
Comment : torrentc
Video
ID : 0
Format : MPEG-4 Visual
Format profile : Advanced Simple@L5
Format settings, BVOP : 1
Format settings, QPel : No
Format settings, GMC : No warppoints
Format settings, Matrix : Default (MPEG)
Codec ID : XVID
Codec ID/Hint : XviD
Duration : 1 h 18 min
Bit rate : 2 302 kb/s
Width : 720 pixels
Height : 544 pixels
Display aspect ratio : 4:3
Frame rate : 25.000 FPS
Color space : YUV
Chroma subsampling : 4:2:0
Bit depth : 8 bits
Scan type : Progressive
Compression mode : Lossy
Bits/(Pixel*Frame) : 0.235
Stream size : 1.26 GiB (92%)
Writing library : XviD 1.2.1 (UTC 2008-12-04)
Audio
ID : 1
Format : AC-3
Format/Info : Audio Coding 3
Mode extension : CM (complete main)
Format settings, Endianness : Big
Codec ID : 2000
Duration : 1 h 18 min
Bit rate mode : Constant
Bit rate : 192 kb/s
Channel(s) : 2 channels
Channel positions : Front: L R
Sampling rate : 48.0 kHz
Frame rate : 31.250 FPS (1536 spf)
Compression mode : Lossy
Delay relative to video : 8 ms
Stream size : 108 MiB (8%)
Alignment : Split accross interleaves
Interleave, duration : 40 ms (1.00 video frame)
Interleave, preload duratio : 500 ms

Скриншоты




[torrentc.info]_torrent-5350740.torrent
Торрент: Зарегистрирован ·  [ 2017-02-14 13:48 ] ·  0b0af6de71fa280fffa6920b8da873a8fc43c3c2

14 KB

Статус: проверено
Скачан: 1 раз
Размер: 1.38 GB
Оценка: 
(Голосов: 0)
Сказали спасибо: 0  Спасибо
Похожие темы
[Профиль]    [ЛС]
Показать сообщения:    
Ответить на тему

Текущее время: Сегодня 09:25

Часовой пояс: GMT + 7



Вы не можете начинать темы
Вы не можете отвечать на сообщения
Вы не можете редактировать свои сообщения
Вы не можете удалять свои сообщения
Вы не можете голосовать в опросах
Вы не можете прикреплять файлы к сообщениям
Вы можете скачивать файлы