Монахини в бегах / Nuns on the Run (Джонатан Линн / Jonathan Lynn) [1990, Великобритания, комедия, TVRip-AVC] [Fullscreen] DVO (студия "Кипарис")

Ответить на тему
Статистика раздачи [Обновить пиров]
Размер:  2.58 GB   |    Зарегистрирован:  1 год 9 месяцев   |    Скачан:  1 раз

Полного источника не было: 1 год 8 месяцев

 
   
 
 
 
Автор Сообщение

torrentc.info

Создавать темы 14-Фев-2017 14:54

[Цитировать]

Монахини в бегах / Nuns on the Run / Fullscreen
Страна: Великобритания
Жанр: комедия
Год выпуска: 1990
Продолжительность: 01:28:03
Перевод: Профессиональный (двухголосый закадровый) студия "Кипарис"
Cубтитры: нет
Оригинальная аудиодорожка: нет
Режиссер: Джонатан Линн / Jonathan Lynn
В ролях: Эрик Айдл, Робби Колтрейн, Камилла Кодури, Дженет Сьюзман, Дорис Хэа, Лила Кэй...
Описание: Львиная доля событий разворачивается в стенах женского монастыря. Сюда судьба забрасывает двух незадачливых преступников Брайена Хоупа и Чарли МакМануса, которые украли у своих «сотоварищей» пару чемоданов с деньгами и попытались найти местечко, где можно было бы пересидеть. В монастыре им пришлось не только переодеться, но и поменять имена…
Доп. информация:
Оцифровка VHS с записью эфира ОРТ, сделанной в период с 1 апреля по 30 сентября 1995 году.
Fullscreen.
Сэмпл: http://sendfile.su/1308510
Качество видео: TVRip-AVC
Формат видео: MP4
Видео: AVC, 720х578, 5:4, 50,000 кадров/сек, 4000 Кбит/сек
Аудио: AAC, 48,0 КГц, 192 Кбит/сек, 2 канала (псевдостерео)

MediaInfo

Общее
Полное имя : K:\torrents\...Nuns on the Run. full\Nuns on the Run.mp4
Формат : MPEG-4
Профиль формата : Base Media
Идентификатор кодека : isom (isom/iso2/avc1/mp41)
Размер файла : 2,58 Гбайт
Продолжительность : 1 ч. 28 м.
Общий поток : 4198 Кбит/сек
Программа кодирования : Lavf57.25.100
Видео
Идентификатор : 1
Формат : AVC
Формат/Информация : Advanced Video Codec
Профиль формата : Baseline@L3
Параметр CABAC формата : Нет
Параметр ReFrames формата : 1 кадр
Параметр GOP формата : M=1, N=100
Идентификатор кодека : avc1
Идентификатор кодека/Информация : Advanced Video Coding
Продолжительность : 1 ч. 28 м.
Битрейт : 4000 Кбит/сек
Ширина : 720 пикселей
Высота : 576 пикселей
Соотношение сторон : 5:4
Режим частоты кадров : Постоянный
Частота кадров : 50,000 кадров/сек
Цветовое пространство : YUV
Субдискретизация насыщенности : 4:2:0
Битовая глубина : 8 бит
Тип развёртки : Прогрессивная
Бит/(Пиксели*Кадры) : 0.193
Размер потока : 2,46 Гбайт (95%)
Аудио
Идентификатор : 2
Формат : AAC
Формат/Информация : Advanced Audio Codec
Профиль формата : LTP
Идентификатор кодека : 40
Продолжительность : 1 ч. 28 м.
Вид битрейта : Постоянный
Битрейт : 192 Кбит/сек
Каналы : 2 канала
Channel(s)_Original : 3 канала
Расположение каналов : Front: L C R
Частота : 64,0 КГц
Частота кадров : 62,500 кадра/сек (1024 spf)
Метод сжатия : С потерями
Размер потока : 119 Мбайт (5%)
Default : Да
Alternate group : 1

Скриншот c названием фильма



[torrentc.info]_torrent-5356946.torrent
Торрент: Зарегистрирован ·  [ 2017-02-14 14:54 ] ·  a9ee34f46aee34d13df646199a5c44413f39ad8b

13 KB

Статус: проверено
Скачан: 1 раз
Размер: 2.58 GB
Оценка: 
(Голосов: 0)
Сказали спасибо: 0  Спасибо
Похожие темы
[Профиль]    [ЛС]
Показать сообщения:    
Ответить на тему

Текущее время: Сегодня 16:56

Часовой пояс: GMT + 7



Вы не можете начинать темы
Вы не можете отвечать на сообщения
Вы не можете редактировать свои сообщения
Вы не можете удалять свои сообщения
Вы не можете голосовать в опросах
Вы не можете прикреплять файлы к сообщениям
Вы можете скачивать файлы