В чужом ряду / Меняя полосу движения / Changing Lanes (Роджер Мичелл / Roger Michell) [2002, США, триллер, драма, BDRip-AVC] Dub + 2хMVO + Original Eng + Sub (Rus, Eng)

Ответить на тему
Статистика раздачи [Обновить пиров]
Размер:  2.32 GB   |    Зарегистрирован:  1 год 9 месяцев   |    Скачан:  0 раз

Полного источника не было: Никогда

 
   
 
 
 
Автор Сообщение

torrentc.info

Создавать темы 14-Фев-2017 19:18

[Цитировать]

В чужом ряду / Меняя полосу движения / Changing Lanes- Страна: США
Жанр: триллер, драма
Год выхода: 2002
Продолжительность: 01:38:44
Перевод 1: Профессиональный (дублированный)
Перевод 2: Профессиональный (многоголосый закадровый) 1
Перевод 3: Профессиональный (многоголосый закадровый) 2
Cубтитры: русские, английские
Оригинальная аудиодорожка: английский
Режиссер: Роджер Мичелл / Roger Michell
В ролях: Бен Аффлек / Ben Affleck, Сэмюэл Л. Джексон / Samuel L. Jackson, Ким Стонтон / Kim Staunton, Тони Коллетт / Toni Collette, Сидни Поллак /Sydney Pollack, Тина Слоун / Tina Sloan, Ричард Дженкинс / Richard Jenkins, Акил Уолкер / Akil Walker, Коул Хоукинс / Cole Hawkins, Айлин Гетз / Ileen Getz
Описание: Этот фильм рекламировался как триллер о слишком далеко зашедших в своей мести двух абсолютно разных (и не только по цвету кожи) людях, которые случайно столкнулись на машинах по дороге на Манхэттен, когда спешили по делам в суд. Преуспевающий молодой адвокат Гэвин Бэнек должен был отстаивать интересы своей фирмы, доказывая, что ей вполне законно передали функции по управлению благотворительным фондом покойного мультимиллионера Данна. А куда менее удачливый страховой агент Дойл Джипсон, бывший алкоголик, разведённый с женой, но пытающийся сохранить опеку над двумя сыновьями, был обязан явиться на слушание как раз по данному вопросу. Авария же привела к тому, что планы обоих непоправимо рухнули — и тогда они начали мстить друг другу.
Сэмпл: http://sendfile.su/1303758
[img]https://rating.kinopoisk.ru/632.gif[/img]
Качество видео: BDRip-AVC (CHANGING_LANES_)
Формат файла: MKV
Видео: x264, 1148x488 (2.35:1) 23,976 fps, ~1640 kbps, 0,122 bit/pixel
Аудио 1: 48 kHz, AC3 Dolby Digital, 3/2 (L,C,R,l,r) + LFE ch, ~448 kbps | Dub
Аудио 2: 48 kHz, AC3 Dolby Digital, 3/2 (L,C,R,l,r) + LFE ch, ~448 kbps | MVO#2
Аудио 3: 48 kHz, AC3 Dolby Digital, 3/2 (L,C,R,l,r) + LFE ch, ~448 kbps | Английский
---------------------------------------отдельно---------------------------------------------------
Аудио 4: 48 kHz, AC3 Dolby Digital, 3/2 (L,C,R,l,r) + LFE ch, ~384 kbps | MVO#1
Формат файла субтитров: softsub (SRT)

MediaInfo

General
Unique ID : 174715841132076679636828314222686982339 (0x83710C09786CA7F4B0287FD8A07950C3)
Format : Matroska
Format version : Version 4 / Version 2
File size : 2.06 GiB
Duration : 1h 38mn
Overall bit rate : 2 985 Kbps
Encoded date : UTC 2017-01-30 05:25:08
Writing application : mkvmerge v9.8.0 ('Kuglblids') 64bit
Writing library : libebml v1.3.4 + libmatroska v1.4.5
Video #1
ID : 1
Format : AVC
Format/Info : Advanced Video Codec
Format profile : High@L4.1
Format settings, CABAC : Yes
Format settings, ReFrames : 11 frames
Codec ID : V_MPEG4/ISO/AVC
Duration : 1h 38mn
Bit rate : 1 640 Kbps
Width : 1 148 pixels
Height : 488 pixels
Display aspect ratio : 2.35:1
Frame rate mode : Constant
Frame rate : 23.976 (24000/1001) fps
Color space : YUV
Chroma subsampling : 4:2:0
Bit depth : 8 bits
Scan type : Progressive
Bits/(Pixel*Frame) : 0.122
Stream size : 1.13 GiB (55%)
Writing library : x264 core 146 r2538 121396c
Encoding settings : cabac=1 / ref=11 / deblock=1:-3:-2 / analyse=0x3:0x113 / me=umh / subme=10 / psy=1 / psy_rd=1.00:0.00 / mixed_ref=1 / me_range=32 / chroma_me=1 / trellis=2 / 8x8dct=1 / cqm=0 / deadzone=21,11 / fast_pskip=1 / chroma_qp_offset=-2 / threads=6 / lookahead_threads=1 / sliced_threads=0 / nr=0 / decimate=1 / interlaced=0 / bluray_compat=0 / constrained_intra=0 / bframes=10 / b_pyramid=2 / b_adapt=2 / b_bias=0 / direct=1 / weightb=1 / open_gop=0 / weightp=2 / keyint=250 / keyint_min=23 / scenecut=40 / intra_refresh=0 / rc_lookahead=50 / rc=2pass / mbtree=1 / bitrate=1640 / ratetol=1.0 / qcomp=0.60 / qpmin=0 / qpmax=69 / qpstep=4 / cplxblur=20.0 / qblur=0.5 / ip_ratio=1.40 / aq=3:1.00
Language : English
Default : Yes
Forced : No
Audio #2
ID : 2
Format : AC-3
Format/Info : Audio Coding 3
Mode extension : CM (complete main)
Format settings, Endianness : Big
Codec ID : A_AC3
Duration : 1h 38mn
Bit rate mode : Constant
Bit rate : 448 Kbps
Channel(s) : 6 channels
Channel positions : Front: L C R, Side: L R, LFE
Sampling rate : 48.0 KHz
Frame rate : 31.250 fps (1536 spf)
Compression mode : Lossy
Stream size : 316 MiB (15%)
Language : Russian
Default : Yes
Forced : No
Audio #3
ID : 3
Format : AC-3
Format/Info : Audio Coding 3
Mode extension : CM (complete main)
Format settings, Endianness : Big
Codec ID : A_AC3
Duration : 1h 38mn
Bit rate mode : Constant
Bit rate : 448 Kbps
Channel(s) : 6 channels
Channel positions : Front: L C R, Side: L R, LFE
Sampling rate : 48.0 KHz
Frame rate : 31.250 fps (1536 spf)
Compression mode : Lossy
Stream size : 316 MiB (15%)
Title : MVO#2
Language : Russian
Default : No
Forced : No
Audio #4
ID : 4
Format : AC-3
Format/Info : Audio Coding 3
Mode extension : CM (complete main)
Format settings, Endianness : Big
Codec ID : A_AC3
Duration : 1h 38mn
Bit rate mode : Constant
Bit rate : 448 Kbps
Channel(s) : 6 channels
Channel positions : Front: L C R, Side: L R, LFE
Sampling rate : 48.0 KHz
Frame rate : 31.250 fps (1536 spf)
Compression mode : Lossy
Stream size : 316 MiB (15%)
Language : English
Default : No
Forced : No
Text #5
ID : 5
Format : UTF-8
Codec ID : S_TEXT/UTF8
Codec ID/Info : UTF-8 Plain Text
Duration : 1h 31mn
Bit rate : 78 bps
Count of elements : 1176
Stream size : 52.2 KiB (0%)
Language : Russian
Default : Yes
Forced : No
Text #6
ID : 6
Format : UTF-8
Codec ID : S_TEXT/UTF8
Codec ID/Info : UTF-8 Plain Text
Duration : 1h 31mn
Bit rate : 67 bps
Count of elements : 1194
Stream size : 45.0 KiB (0%)
Language : English
Default : No
Forced : No

лог

raw [info]: 1148x488p 1:1 @ 24000/1001 fps (cfr)
x264 [info]: using SAR=1/1
x264 [info]: using cpu capabilities: MMX2 SSE2Fast SSSE3 SSE4.2 AVX XOP FMA4 FMA3 LZCNT BMI1
x264 [info]: profile High, level 4.1
x264 [info]: frame I:1046 Avg QP:16.74 size: 58054
x264 [info]: frame P:31203 Avg QP:20.28 size: 17910
x264 [info]: frame B:109806 Avg QP:22.84 size: 5412
x264 [info]: consecutive B-frames: 2.3% 3.5% 7.5% 18.9% 18.5% 35.2% 7.6% 4.3% 1.1% 0.8% 0.4%
x264 [info]: mb I I16..4: 8.1% 77.5% 14.4%
x264 [info]: mb P I16..4: 1.7% 8.0% 1.1% P16..4: 45.1% 22.8% 12.3% 0.0% 0.0% skip: 9.1%
x264 [info]: mb B I16..4: 0.1% 0.4% 0.1% B16..8: 46.1% 8.4% 1.7% direct: 3.3% skip:39.9% L0:45.6% L1:49.1% BI: 5.3%
x264 [info]: 8x8 transform intra:75.6% inter:76.1%
x264 [info]: coded y,uvDC,uvAC intra: 79.1% 70.5% 36.2% inter: 18.5% 13.9% 2.6%
x264 [info]: i16 v,h,dc,p: 26% 16% 5% 53%
x264 [info]: i8 v,h,dc,ddl,ddr,vr,hd,vl,hu: 12% 10% 4% 10% 15% 13% 14% 11% 12%
x264 [info]: i4 v,h,dc,ddl,ddr,vr,hd,vl,hu: 11% 9% 2% 10% 16% 14% 14% 11% 12%
x264 [info]: i8c dc,h,v,p: 31% 29% 20% 20%
x264 [info]: Weighted P-Frames: Y:2.6% UV:0.5%
x264 [info]: ref P L0: 43.8% 10.3% 18.3% 6.6% 5.9% 3.9% 3.8% 1.9% 2.0% 1.6% 1.7% 0.2% 0.0%
x264 [info]: ref B L0: 69.3% 13.0% 6.5% 3.4% 2.4% 2.0% 1.6% 1.0% 0.6% 0.3%
x264 [info]: ref B L1: 91.7% 8.3%
x264 [info]: kb/s:1639.04
x264 [total]: encoded 142055 frames, 8.39 fps, 1639.04 kb/s

Скриншоты




[torrentc.info]_torrent-5349465.torrent
Торрент: Зарегистрирован ·  [ 2017-02-14 19:18 ] ·  3cdbe0a108f5f4c00f9ab8efceba3fc24f12778d

12 KB

Статус: проверено
Скачан: 0 раз
Размер: 2.32 GB
Оценка: 
(Голосов: 0)
Сказали спасибо: 0  Спасибо
Похожие темы
[Профиль]    [ЛС]
Показать сообщения:    
Ответить на тему

Текущее время: Сегодня 09:49

Часовой пояс: GMT + 7



Вы не можете начинать темы
Вы не можете отвечать на сообщения
Вы не можете редактировать свои сообщения
Вы не можете удалять свои сообщения
Вы не можете голосовать в опросах
Вы не можете прикреплять файлы к сообщениям
Вы можете скачивать файлы