24 часа / Trapped (Луис Мандоки / Luis Mandoki) [2002, США, Германия, триллер, драма, криминал, BDRip-AVC] Dub + Original Eng + Sub (Rus, Eng)

Ответить на тему
Статистика раздачи [Обновить пиров]
Размер:  2.87 GB   |    Зарегистрирован:  1 год 9 месяцев   |    Скачан:  0 раз

Полного источника не было: Никогда

 
   
 
 
 
Автор Сообщение

torrentc.info

Создавать темы 14-Фев-2017 19:18

[Цитировать]

24 часа / Trapped- Страна: США, Германия
Жанр: триллер, драма, криминал
Год выхода: 2002
Продолжительность: 01:45:46
Перевод: Профессиональный (дублированный)
Cубтитры: русские, английские
Оригинальная аудиодорожка: английский
Режиссер: Луис Мандоки / Luis Mandoki
В ролях: Шарлиз Терон, Кевин Бэйкон, Кортни Лав, Стюарт Таунсенд, Прюитт Тэйлор Винс, Дакота Фэннинг, Грегори Беннетт, Коллин Кэмп, Натасия Мальте
Описание: Трое преступников — супруги Хики Джо и Черил и их кузен Джой Марвин — настолько хорошо знают среду, в которой живут, что сумели разработать безукоризненный план вымогательства денег у состоятельных семей. Они действуют уверенно, умело и успешно и настолько хорошо заметают свои следы, что после них остаются только перепуганные жертвы, которые предпочитают хранить молчание, ибо рады уже тому, что остались живы. Но на этот раз они ошиблись в выборе семьи, которая предпочла дать отпор преступникам, вследствие чего события приняли неожиданный поворот…
Сэмпл: http://sendfile.su/1302437
[img]https://rating.kinopoisk.ru/6179.gif[/img]
Качество видео: BDRip-AVC ([url=viewtopic.php?t=4535062]24 часа 2002 BDRemux 1080p[/url])
Формат файла: MKV
Видео: x264, 1120x630 (16:9) 23.976 fps, ~2985 kbps, 0,176 bit/pixel
Аудио 1: 48 kHz, AC3 Dolby Digital, 3/2 (L,C,R,l,r) + LFE ch, ~448 kbps [русский]
Аудио 2: 48 kHz, AC3 Dolby Digital, 3/2 (L,C,R,l,r) + LFE ch, ~448 kbps [английский]
Формат файла субтитров: softsub (SRT)

MediaInfo

General
Unique ID : 242775708874273536101548668734216500591 (0xB6A4E6977DE119B68F207C1174CA756F)
Format : Matroska
Format version : Version 4 / Version 2
File size : 2.87 GiB
Duration : 1h 45mn
Overall bit rate : 3 881 Kbps
Encoded date : UTC 2017-01-26 05:28:49
Writing application : mkvmerge v9.8.0 ('Kuglblids') 64bit
Writing library : libebml v1.3.4 + libmatroska v1.4.5
Video #1
ID : 1
Format : AVC
Format/Info : Advanced Video Codec
Format profile : High@L4.1
Format settings, CABAC : Yes
Format settings, ReFrames : 11 frames
Codec ID : V_MPEG4/ISO/AVC
Duration : 1h 45mn
Bit rate : 2 985 Kbps
Width : 1 120 pixels
Height : 630 pixels
Display aspect ratio : 16:9
Frame rate mode : Constant
Frame rate : 23.976 (24000/1001) fps
Color space : YUV
Chroma subsampling : 4:2:0
Bit depth : 8 bits
Scan type : Progressive
Bits/(Pixel*Frame) : 0.176
Stream size : 2.20 GiB (77%)
Writing library : x264 core 146 r2538 121396c
Encoding settings : cabac=1 / ref=11 / deblock=1:-3:-2 / analyse=0x3:0x113 / me=umh / subme=10 / psy=1 / psy_rd=1.00:0.00 / mixed_ref=1 / me_range=32 / chroma_me=1 / trellis=2 / 8x8dct=1 / cqm=0 / deadzone=21,11 / fast_pskip=1 / chroma_qp_offset=-2 / threads=6 / lookahead_threads=1 / sliced_threads=0 / nr=0 / decimate=1 / interlaced=0 / bluray_compat=0 / constrained_intra=0 / bframes=12 / b_pyramid=2 / b_adapt=2 / b_bias=0 / direct=1 / weightb=1 / open_gop=0 / weightp=2 / keyint=250 / keyint_min=23 / scenecut=40 / intra_refresh=0 / rc_lookahead=50 / rc=2pass / mbtree=1 / bitrate=2985 / ratetol=1.0 / qcomp=0.60 / qpmin=0 / qpmax=69 / qpstep=4 / cplxblur=20.0 / qblur=0.5 / ip_ratio=1.40 / aq=3:1.00
Language : English
Default : Yes
Forced : No
Audio #2
ID : 2
Format : AC-3
Format/Info : Audio Coding 3
Mode extension : CM (complete main)
Format settings, Endianness : Big
Codec ID : A_AC3
Duration : 1h 45mn
Bit rate mode : Constant
Bit rate : 448 Kbps
Channel(s) : 6 channels
Channel positions : Front: L C R, Side: L R, LFE
Sampling rate : 48.0 KHz
Frame rate : 31.250 fps (1536 spf)
Compression mode : Lossy
Stream size : 339 MiB (12%)
Title : Дубляж
Language : Russian
Default : Yes
Forced : No
Audio #3
ID : 3
Format : AC-3
Format/Info : Audio Coding 3
Mode extension : CM (complete main)
Format settings, Endianness : Big
Codec ID : A_AC3
Duration : 1h 45mn
Bit rate mode : Constant
Bit rate : 448 Kbps
Channel(s) : 6 channels
Channel positions : Front: L C R, Side: L R, LFE
Sampling rate : 48.0 KHz
Frame rate : 31.250 fps (1536 spf)
Compression mode : Lossy
Stream size : 339 MiB (12%)
Language : English
Default : No
Forced : No
Text #4
ID : 4
Format : UTF-8
Codec ID : S_TEXT/UTF8
Codec ID/Info : UTF-8 Plain Text
Duration : 1h 41mn
Bit rate : 89 bps
Count of elements : 1703
Stream size : 66.8 KiB (0%)
Language : Russian
Default : Yes
Forced : No
Text #5
ID : 5
Format : UTF-8
Codec ID : S_TEXT/UTF8
Codec ID/Info : UTF-8 Plain Text
Duration : 1h 40mn
Bit rate : 50 bps
Count of elements : 991
Stream size : 36.8 KiB (0%)
Language : English
Default : No
Forced : No

лог

raw [info]: 1120x630p 1:1 @ 24000/1001 fps (cfr)
x264 [info]: using SAR=1/1
x264 [info]: using cpu capabilities: MMX2 SSE2Fast SSSE3 SSE4.2 AVX XOP FMA4 FMA3 LZCNT BMI1
x264 [info]: profile High, level 4.1
x264 [info]: frame I:842 Avg QP:17.43 size: 69502
x264 [info]: frame P:34106 Avg QP:20.82 size: 25253
x264 [info]: frame B:117215 Avg QP:22.25 size: 12340
x264 [info]: consecutive B-frames: 2.8% 3.6% 11.4% 10.1% 13.3% 50.9% 3.6% 1.1% 1.2% 0.8% 0.6% 0.4% 0.4%
x264 [info]: mb I I16..4: 7.3% 83.5% 9.2%
x264 [info]: mb P I16..4: 1.9% 11.7% 1.2% P16..4: 46.3% 21.0% 10.8% 0.0% 0.0% skip: 7.1%
x264 [info]: mb B I16..4: 0.1% 1.2% 0.1% B16..8: 48.0% 10.7% 2.2% direct: 5.8% skip:31.9% L0:45.8% L1:49.6% BI: 4.6%
x264 [info]: 8x8 transform intra:82.1% inter:72.3%
x264 [info]: coded y,uvDC,uvAC intra: 83.9% 54.9% 13.4% inter: 29.2% 15.2% 0.2%
x264 [info]: i16 v,h,dc,p: 31% 14% 7% 48%
x264 [info]: i8 v,h,dc,ddl,ddr,vr,hd,vl,hu: 11% 6% 5% 11% 16% 15% 14% 11% 11%
x264 [info]: i4 v,h,dc,ddl,ddr,vr,hd,vl,hu: 13% 6% 2% 10% 16% 16% 14% 11% 11%
x264 [info]: i8c dc,h,v,p: 35% 32% 20% 13%
x264 [info]: Weighted P-Frames: Y:2.9% UV:1.0%
x264 [info]: ref P L0: 44.5% 9.8% 17.8% 7.1% 5.5% 4.1% 3.5% 2.1% 1.9% 1.7% 1.6% 0.4% 0.0%
x264 [info]: ref B L0: 69.3% 13.1% 6.7% 3.3% 2.4% 1.9% 1.5% 0.9% 0.6% 0.2%
x264 [info]: ref B L1: 90.9% 9.1%
x264 [info]: kb/s:2982.80
x264 [total]: encoded 152163 frames, 5.85 fps, 2982.80 kb/s

Скриншоты




[torrentc.info]_torrent-5347307.torrent
Торрент: Зарегистрирован ·  [ 2017-02-14 19:18 ] ·  e47fee22597ae81db57e9970a31b013a0280d8ec

15 KB

Статус: проверено
Скачан: 0 раз
Размер: 2.87 GB
Оценка: 
(Голосов: 0)
Сказали спасибо: 0  Спасибо
Похожие темы
[Профиль]    [ЛС]
Показать сообщения:    
Ответить на тему

Текущее время: Сегодня 17:35

Часовой пояс: GMT + 7



Вы не можете начинать темы
Вы не можете отвечать на сообщения
Вы не можете редактировать свои сообщения
Вы не можете удалять свои сообщения
Вы не можете голосовать в опросах
Вы не можете прикреплять файлы к сообщениям
Вы можете скачивать файлы