Пришельцы в Америке / Just Visiting (Жан-Мари Пуарэ / Jean-Marie Poire) [2001, США, Франция, комедия, приключения, BDRip-AVC] Dub + AVO + Original Eng + Sub Rus

Ответить на тему
Статистика раздачи [Обновить пиров]
Размер:  2.3 GB   |    Зарегистрирован:  1 год 9 месяцев   |    Скачан:  0 раз

Полного источника не было: Никогда

 
   
 
 
 
Автор Сообщение

torrentc.info

Создавать темы 14-Фев-2017 19:18

[Цитировать]

Пришельцы в Америке / Just Visiting- Страна: США, Франция
Жанр: комедия, приключения
Год выхода: 2001
Продолжительность: 01:28:25
Перевод 1: Профессиональный (дублированный)
Перевод 2: Профессиональный (двухголосый закадровый) R5
Перевод 3: Авторский (одноголосый закадровый) Ю. Живов
Cубтитры: русские
Оригинальная аудиодорожка: английский
Режиссер: Жан-Мари Пуарэ / Jean-Marie Poire
В ролях: Жан Рено, Кристина Эпплгейт, Кристиан Клавье, Мэтт Росс, Тара Рейд, Бриджит Уилсон, Джон Эйлуорд, Джордж Плимптон, Малкольм МакДауэлл, Мартин Аистроп
Описание: Два чудака из средневековой Франции, виконт Тибо и его слуга Андре, покорившие зрителей всего мира в легендарных комедиях "Коридоры времени" и "Коридоры времени 2", снова на экране! На этот раз двум героям предстоит отправиться в современные Соединенные Штаты Америки, чтобы в результате спасти от смерти возлюбленную Тибо Розалинд. В Штатах благородный рыцарь и его слуга попадают в такое количество сумасбродных и безумно смешных ситуаций, что их хватило бы на целую дюжину комедий...
Сэмпл: http://sendfile.su/1299984
[img]https://rating.kinopoisk.ru/2509.gif[/img]
Качество видео: BDRip-AVC (Just.Visiting.2001.BDRemux | )
Формат файла: MKV
Видео: x264, 1012x4306 (2.35:1) 23,976 fps, ~2636 kbps, 0,253 bit/pixel
Аудио 1: 48 kHz, AC3 Dolby Digital, 3/2 (L,C,R,l,r) + LFE ch, ~448 kbps | Мосфильм-Мастер
Аудио 2: 48 kHz, AC3 Dolby Digital, 3/2 (L,C,R,l,r) + LFE ch, ~448 kbps | Английский
---------------------------------------отдельно---------------------------------------------------
Аудио 3: 48 kHz, AC3, 2/0 (L,R) ch, ~192 kbps avg | Живов
Формат файла субтитров: softsub (SRT)

MediaInfo

General
Unique ID : 192683857956392878554907818433938892785 (0x90F58FA9BE49A2F4B3E4E9A73AA2A7F1)
Format : Matroska
Format version : Version 4 / Version 2
File size : 2.18 GiB
Duration : 1h 28mn
Overall bit rate : 3 533 Kbps
Encoded date : UTC 2017-01-17 16:14:17
Writing application : mkvmerge v9.7.1 ('Pandemonium') 64bit
Writing library : libebml v1.3.4 + libmatroska v1.4.5
Video #1
ID : 1
Format : AVC
Format/Info : Advanced Video Codec
Format profile : High@L4.1
Format settings, CABAC : Yes
Format settings, ReFrames : 10 frames
Codec ID : V_MPEG4/ISO/AVC
Duration : 1h 28mn
Bit rate : 2 636 Kbps
Width : 1 012 pixels
Height : 430 pixels
Display aspect ratio : 2.35:1
Frame rate mode : Constant
Frame rate : 23.976 (24000/1001) fps
Color space : YUV
Chroma subsampling : 4:2:0
Bit depth : 8 bits
Scan type : Progressive
Bits/(Pixel*Frame) : 0.253
Stream size : 1.63 GiB (75%)
Writing library : x264 core 146 r2538 121396c
Encoding settings : cabac=1 / ref=10 / deblock=1:-3:-2 / analyse=0x3:0x113 / me=umh / subme=10 / psy=1 / psy_rd=1.00:0.00 / mixed_ref=1 / me_range=32 / chroma_me=1 / trellis=2 / 8x8dct=1 / cqm=0 / deadzone=21,11 / fast_pskip=1 / chroma_qp_offset=-2 / threads=6 / lookahead_threads=1 / sliced_threads=0 / nr=0 / decimate=1 / interlaced=0 / bluray_compat=0 / constrained_intra=0 / bframes=13 / b_pyramid=2 / b_adapt=2 / b_bias=0 / direct=1 / weightb=1 / open_gop=0 / weightp=2 / keyint=250 / keyint_min=23 / scenecut=40 / intra_refresh=0 / rc_lookahead=50 / rc=2pass / mbtree=1 / bitrate=2636 / ratetol=1.0 / qcomp=0.60 / qpmin=0 / qpmax=69 / qpstep=4 / cplxblur=20.0 / qblur=0.5 / ip_ratio=1.40 / aq=3:1.00
Language : English
Default : Yes
Forced : No
Audio #2
ID : 2
Format : AC-3
Format/Info : Audio Coding 3
Mode extension : CM (complete main)
Format settings, Endianness : Big
Codec ID : A_AC3
Duration : 1h 28mn
Bit rate mode : Constant
Bit rate : 448 Kbps
Channel(s) : 6 channels
Channel positions : Front: L C R, Side: L R, LFE
Sampling rate : 48.0 KHz
Frame rate : 31.250 fps (1536 spf)
Compression mode : Lossy
Stream size : 283 MiB (13%)
Language : Russian
Default : Yes
Forced : No
Audio #3
ID : 3
Format : AC-3
Format/Info : Audio Coding 3
Mode extension : CM (complete main)
Format settings, Endianness : Big
Codec ID : A_AC3
Duration : 1h 28mn
Bit rate mode : Constant
Bit rate : 448 Kbps
Channel(s) : 6 channels
Channel positions : Front: L C R, Side: L R, LFE
Sampling rate : 48.0 KHz
Frame rate : 31.250 fps (1536 spf)
Compression mode : Lossy
Stream size : 283 MiB (13%)
Language : English
Default : No
Forced : No
Text #4
ID : 4
Format : UTF-8
Codec ID : S_TEXT/UTF8
Codec ID/Info : UTF-8 Plain Text
Duration : 1h 22mn
Bit rate : 81 bps
Count of elements : 712
Stream size : 49.0 KiB (0%)
Title : Русские
Language : Russian
Default : No
Forced : No

лог

raw [info]: 1012x430p 1:1 @ 24000/1001 fps (cfr)
x264 [info]: using SAR=1/1
x264 [info]: using cpu capabilities: MMX2 SSE2Fast SSSE3 SSE4.2 AVX XOP FMA4 FMA3 LZCNT BMI1
x264 [info]: profile High, level 4.1
x264 [info]: frame I:1687 Avg QP:15.56 size: 76592
x264 [info]: frame P:28328 Avg QP:19.29 size: 26755
x264 [info]: frame B:97200 Avg QP:21.70 size: 8851
x264 [info]: consecutive B-frames: 2.8% 3.8% 9.6% 21.4% 17.5% 30.9% 6.0% 2.8% 1.9% 1.2% 0.8% 0.6% 0.3% 0.3%
x264 [info]: mb I I16..4: 3.0% 76.2% 20.8%
x264 [info]: mb P I16..4: 0.7% 11.5% 2.0% P16..4: 35.0% 28.2% 15.0% 0.0% 0.0% skip: 7.7%
x264 [info]: mb B I16..4: 0.0% 1.1% 0.3% B16..8: 42.4% 14.1% 4.1% direct: 6.7% skip:31.3% L0:44.4% L1:43.2% BI:12.4%
x264 [info]: 8x8 transform intra:79.5% inter:62.7%
x264 [info]: coded y,uvDC,uvAC intra: 92.5% 85.0% 56.5% inter: 35.4% 22.1% 2.6%
x264 [info]: i16 v,h,dc,p: 38% 19% 6% 36%
x264 [info]: i8 v,h,dc,ddl,ddr,vr,hd,vl,hu: 11% 11% 5% 9% 14% 14% 13% 12% 12%
x264 [info]: i4 v,h,dc,ddl,ddr,vr,hd,vl,hu: 10% 15% 3% 8% 14% 14% 12% 11% 12%
x264 [info]: i8c dc,h,v,p: 39% 23% 20% 18%
x264 [info]: Weighted P-Frames: Y:7.5% UV:2.3%
x264 [info]: ref P L0: 43.6% 13.1% 17.7% 6.8% 5.9% 3.9% 3.6% 1.8% 1.7% 1.4% 0.3% 0.0%
x264 [info]: ref B L0: 69.6% 13.1% 6.7% 3.6% 2.5% 2.1% 1.6% 0.6% 0.3%
x264 [info]: ref B L1: 91.7% 8.3%
x264 [info]: kb/s:2634.69
x264 [total]: encoded 127215 frames, 9.57 fps, 2634.69 kb/s

Скриншоты




[torrentc.info]_torrent-5343147.torrent
Торрент: Зарегистрирован ·  [ 2017-02-14 19:18 ] ·  553c2bbbb970cb6ce78a45e73be064b8f6a8974b

12 KB

Статус: проверено
Скачан: 0 раз
Размер: 2.3 GB
Оценка: 
(Голосов: 0)
Сказали спасибо: 0  Спасибо
Похожие темы
[Профиль]    [ЛС]
Показать сообщения:    
Ответить на тему

Текущее время: Сегодня 10:41

Часовой пояс: GMT + 7



Вы не можете начинать темы
Вы не можете отвечать на сообщения
Вы не можете редактировать свои сообщения
Вы не можете удалять свои сообщения
Вы не можете голосовать в опросах
Вы не можете прикреплять файлы к сообщениям
Вы можете скачивать файлы