Человек-паук / Spider-Man (Сэм Рэйми / Sam Raimi) [2002, США, фантастика, боевик, приключения, DVDRip-AVC] [Fullscreen] Dub (Невафильм) + Sub Rus, Eng + Original Eng

Ответить на тему
Статистика раздачи [Обновить пиров]
Размер:  2.92 GB   |    Зарегистрирован:  1 год 10 месяцев   |    Скачан:  0 раз

Полного источника не было: Никогда

 
   
 
 
 
Автор Сообщение

torrentc.info

Создавать темы 14-Фев-2017 19:18

[Цитировать]

Человек-паук / Spider-Man
Страна: США
Жанр: фантастика, боевик, приключения
Год выхода: 2002
Продолжительность: 02:01:13
Перевод: Профессиональный (дублированный) Невафильм
Cубтитры: русские, английские
Оригинальная аудиодорожка: английский
Режиссер: Сэм Рэйми / Sam Raimi
В ролях: Тоби Магуайр, Уиллем Дефо, Кирстен Данст, Джеймс Франко, Клифф Робертсон, Розмари Харрис, Дж.К. Симмонс, Джо Манганьелло, Майкл Пападжон, Билл Нанн...
Описание: Питер Паркер — обыкновенный школьник. Однажды он отправился с классом на экскурсию, где его кусает странный паук-мутант. Через время парень почувствовал в себе нечеловеческую силу и ловкость в движении, а главное — умение лазать по стенам и метать стальную паутину. Свои способности он направляет на защиту слабых. Так Питер становится настоящим супергероем по имени Человек-паук, который помогает людям и борется с преступностью. Но там, где есть супергерой, рано или поздно всегда объявляется и суперзлодей…
Доп. информация: Источник: Torrentc.org видео DVD9 [url=viewtopic.php?t=4471600]отсюда[/url].
Сэмпл: http://sendfile.su/1297874
Качество видео: DVDRip-AVC
Формат файла: MKV
Видео: 720x480 (4:3) @ 640x480, 23.976 fps, AVC, ~2550 Kbps, 0.308 bits/pixel
Аудио 1: Russian, 48.0 KHz, AC3, 6 ch, 448 Kbps - Невафильм
Аудио 2: English, 48.0 KHz, AC3, 6 ch, 448 Kbps
[img]https://rating.kinopoisk.ru/838.gif[/img]

Источник: Torrentc.org с широкоэкранной версией

Log

avs4x26x.exe: -L x264_64.exe --pass 2 --bitrate 2550 --preset medium --ref 10 --deblock -1:-1 --merange 32 --bframes 10 --direct auto --b-adapt 2 --trellis 2 --no-fast-pskip --subme 10 --me umh --rc-lookahead 50 --vbv-bufsize 14000 --vbv-maxrate 14000 --partitions p8x8,b8x8,i4x4,i8x8 --sar 8:9 --stats
raw [info]: 720x480p 8:9 @ 24000/1001 fps (cfr)
x264 [info]: using SAR=8/9
x264 [info]: using cpu capabilities: MMX2 SSE2Fast LZCNT
x264 [info]: profile High, level 3.1
x264 [info]: frame I:1544 Avg QP:15.44 size: 59838
x264 [info]: frame P:41024 Avg QP:18.16 size: 27200
x264 [info]: frame B:131810 Avg QP:21.14 size: 8415
x264 [info]: consecutive B-frames: 3.3% 3.7% 17.3% 8.7% 6.6% 57.7% 1.7% 0.4% 0.2% 0.1% 0.3%
x264 [info]: mb I I16..4: 2.6% 91.9% 5.5%
x264 [info]: mb P I16..4: 1.0% 25.0% 1.0% P16..4: 30.2% 23.7% 14.5% 0.0% 0.0% skip: 4.6%
x264 [info]: mb B I16..4: 0.1% 3.1% 0.2% B16..8: 39.0% 12.1% 3.4% direct: 9.3% skip:32.8% L0:35.4% L1:27.3% BI:37.3%
x264 [info]: 8x8 transform intra:92.3% inter:74.5%
x264 [info]: direct mvs spatial:97.3% temporal:2.7%
x264 [info]: coded y,uvDC,uvAC intra: 91.2% 86.8% 57.7% inter: 37.1% 31.8% 7.3%
x264 [info]: i16 v,h,dc,p: 34% 15% 10% 41%
x264 [info]: i8 v,h,dc,ddl,ddr,vr,hd,vl,hu: 14% 14% 22% 7% 8% 8% 8% 9% 11%
x264 [info]: i4 v,h,dc,ddl,ddr,vr,hd,vl,hu: 12% 11% 6% 8% 14% 14% 13% 10% 11%
x264 [info]: i8c dc,h,v,p: 40% 26% 21% 14%
x264 [info]: Weighted P-Frames: Y:7.4% UV:2.7%
x264 [info]: ref P L0: 46.3% 12.9% 17.4% 5.5% 5.6% 3.2% 3.6% 1.8% 2.1% 1.5% 0.2% 0.0%
x264 [info]: ref B L0: 78.8% 10.8% 3.9% 2.1% 1.5% 1.3% 1.0% 0.5% 0.2%
x264 [info]: ref B L1: 96.5% 3.5%
x264 [info]: kb/s:2549.03
x264 [total]: encoded 174378 frames, 9.94 fps, 2549.03 kb/s

MediaInfo

General
Unique ID : 212350344662124466298218623825179662832 (0x9FC13051D396AAA7912C78D1F4ED59F0)
Complete name : C:\Spider-Man [Fullscreen].mkv
Format : Matroska
Format version : Version 4 / Version 2
File size : 2.92 GiB
Duration : 2h 1mn
Overall bit rate : 3 447 Kbps
Movie name : Spider-Man (2002)
Encoded date : UTC 2017-01-09 13:44:18
Writing application : mkvmerge v9.7.1 ('Pandemonium') 64bit
Writing library : libebml v1.3.4 + libmatroska v1.4.5
Video
ID : 1
Format : AVC
Format/Info : Advanced Video Codec
Format profile : High@L3.1
Format settings, CABAC : Yes
Format settings, ReFrames : 10 frames
Codec ID : V_MPEG4/ISO/AVC
Duration : 2h 1mn
Bit rate : 2 550 Kbps
Width : 720 pixels
Height : 480 pixels
Display aspect ratio : 4:3
Frame rate mode : Constant
Frame rate : 23.976 (24000/1001) fps
Color space : YUV
Chroma subsampling : 4:2:0
Bit depth : 8 bits
Scan type : Progressive
Bits/(Pixel*Frame) : 0.308
Stream size : 2.16 GiB (74%)
Writing library : x264 core 148 r2744 b97ae06
Encoding settings : cabac=1 / ref=10 / deblock=1:-1:-1 / analyse=0x3:0x113 / me=umh / subme=10 / psy=1 / psy_rd=1.00:0.00 / mixed_ref=1 / me_range=32 / chroma_me=1 / trellis=2 / 8x8dct=1 / cqm=0 / deadzone=21,11 / fast_pskip=0 / chroma_qp_offset=-2 / threads=6 / lookahead_threads=1 / sliced_threads=0 / nr=0 / decimate=1 / interlaced=0 / bluray_compat=0 / constrained_intra=0 / bframes=10 / b_pyramid=2 / b_adapt=2 / b_bias=0 / direct=3 / weightb=1 / open_gop=0 / weightp=2 / keyint=250 / keyint_min=23 / scenecut=40 / intra_refresh=0 / rc_lookahead=50 / rc=2pass / mbtree=1 / bitrate=2550 / ratetol=1.0 / qcomp=0.60 / qpmin=0 / qpmax=69 / qpstep=4 / cplxblur=20.0 / qblur=0.5 / vbv_maxrate=14000 / vbv_bufsize=14000 / nal_hrd=none / filler=0 / ip_ratio=1.40 / aq=1:1.00
Language : English
Default : Yes
Forced : No
Audio #1
ID : 2
Format : AC-3
Format/Info : Audio Coding 3
Mode extension : CM (complete main)
Format settings, Endianness : Big
Codec ID : A_AC3
Duration : 2h 1mn
Bit rate mode : Constant
Bit rate : 448 Kbps
Channel(s) : 6 channels
Channel positions : Front: L C R, Side: L R, LFE
Sampling rate : 48.0 KHz
Frame rate : 31.250 fps (1536 spf)
Compression mode : Lossy
Stream size : 388 MiB (13%)
Title : Невафильм
Language : Russian
Default : Yes
Forced : No
Audio #2
ID : 3
Format : AC-3
Format/Info : Audio Coding 3
Mode extension : CM (complete main)
Format settings, Endianness : Big
Codec ID : A_AC3
Duration : 2h 1mn
Bit rate mode : Constant
Bit rate : 448 Kbps
Channel(s) : 6 channels
Channel positions : Front: L C R, Side: L R, LFE
Sampling rate : 48.0 KHz
Frame rate : 31.250 fps (1536 spf)
Compression mode : Lossy
Stream size : 388 MiB (13%)
Language : English
Default : No
Forced : No
Text #1
ID : 4
Format : UTF-8
Codec ID : S_TEXT/UTF8
Codec ID/Info : UTF-8 Plain Text
Duration : 1h 54mn
Bit rate : 85 bps
Count of elements : 1211
Stream size : 71.7 KiB (0%)
Title : Киномания
Language : Russian
Default : No
Forced : No
Text #2
ID : 5
Format : UTF-8
Codec ID : S_TEXT/UTF8
Codec ID/Info : UTF-8 Plain Text
Duration : 1h 52mn
Bit rate : 48 bps
Count of elements : 1200
Stream size : 40.2 KiB (0%)
Language : English
Default : No
Forced : No
Menu
00:00:00.000 : en:01. Start
00:06:29.472 : en:02. Columbia University Research Lab
00:09:22.896 : en:03. Bitten by a Spider
00:14:56.187 : en:04. Norman Tests the Performance Enhancers
00:17:50.653 : en:05. A Big Change
00:21:53.604 : en:06. Great Reflexes
00:23:28.616 : en:07. Fight With Flash
00:25:18.767 : en:08. Scaling the Hights
00:34:35.115 : en:09. With Great Power Comes Great Responsibility
00:40:22.170 : en:10. The Wrestling Match
00:41:44.127 : en:11. Enter the Thief
00:43:13.883 : en:12. The Death of Uncle Ben
00:44:40.011 : en:13. Chasing Uncle Ben's Killer
00:54:32.978 : en:14. Spider-Man to the Rescue
00:55:52.558 : en:15. J. Jonah Jameson
01:00:48.937 : en:16. Peter's Photos of Spider-Man
01:04:20.774 : en:17. World Unity Festival
01:05:57.036 : en:18. Battle Over Times Square
01:12:12.370 : en:19. Norman Meets the Goblin
01:14:18.871 : en:20. Goblin Terrorizes the Bugle
01:15:48.669 : en:21. The Goblin's Proposal
01:19:35.521 : en:22. The Alley Kiss
01:22:06.463 : en:23. Hot Time With the Goblin
01:25:13.608 : en:24. Thanksgiving Dinner
01:30:39.225 : en:25. Goblin Attacks Aunt May
01:39:36.679 : en:26. The Queensboro Bridge
01:45:08.385 : en:27. A Final Battle
01:50:27.830 : en:28. Norman's Funeral

Скриншоты



[torrentc.info]_torrent-5339383.torrent
Торрент: Зарегистрирован ·  [ 2017-02-14 19:18 ] ·  30a42de3effe6eb2a822faea527ba81fa6a0910d

15 KB

Статус: проверено
Скачан: 0 раз
Размер: 2.92 GB
Оценка: 
(Голосов: 0)
Сказали спасибо: 0  Спасибо
Похожие темы
[Профиль]    [ЛС]
Показать сообщения:    
Ответить на тему

Текущее время: Сегодня 00:39

Часовой пояс: GMT + 7



Вы не можете начинать темы
Вы не можете отвечать на сообщения
Вы не можете редактировать свои сообщения
Вы не можете удалять свои сообщения
Вы не можете голосовать в опросах
Вы не можете прикреплять файлы к сообщениям
Вы можете скачивать файлы