Вызов / Мексиканские приключения / The Challenge (Крэйг Шапиро / Craig Shapiro) [2003, США, комедия, приключения, DVDRip] MVO (т/к Россия) + Original Eng

Ответить на тему
Статистика раздачи [Обновить пиров]
Размер:  1.37 GB   |    Зарегистрирован:  1 год 9 месяцев   |    Скачан:  0 раз

Полного источника не было: 10 месяцев 3 дня

 
   
 
 
 
Автор Сообщение

torrentc.info

Создавать темы 14-Фев-2017 19:18

[Цитировать]

Вызов / Мексиканские приключения / The Challenge
Страна: США
Жанр: комедия, приключения
Год выхода: 2003
Продолжительность: 01:32:08
Перевод: Профессиональный (многоголосый закадровый) т/к Россия (студия Кириллица)
Cубтитры: нет
Оригинальная аудиодорожка: английский
Режиссер: Крэйг Шапиро / Craig Shapiro
В ролях: Эшли Олсен, Мэри-Кейт Олсен, Брайан Скала, Лукас Бенкен, Сера Бастиан, Джо Майкл Бурк, Закк Мур, Тео Росси
Описание: Родители близняшек развелись, они живут в разных городах. Сестры не общаются, но судьба неожиданно сталкивает их при участии в популярной игре «Вызов», причем они оказываются в одной команде! Одна из сестер вегетарианка, другая с удовольствием съест сочный стэйк. Каждая из них считает себя лучшей. С первого взгляда кажется, что сестры ненавидят друг друга, но…
Сэмпл: http://multi-up.com/1134660
Качество видео: DVDRip
Формат файла: AVI
Видео: 720x528 (1.36:1), 25 fps, XviD MPEG-4 ~1734 kbps avg, 0.18 bit/pixel
Аудио: 48 kHz AC3 Dolby Digital 2/0 (L,R) ch 192 kbps
Аудио 2: 48 kHz AC3 Dolby Digital 2/0 (L,R) ch 192 kbps
Доп. информация: Видеоряд был взят из [url=viewtopic.php?t=3245655]этой[/url] раздачи. Спасибо mixaiil77 за запись фильма с канала Disney.
Озвучка: Марина Тарасова, Ольга Шорохова и др.

MediaInfo

General
Format : AVI
Format/Info : Audio Video Interleave
File size : 1.37 GiB
Duration : 1h 32mn
Overall bit rate : 2 133 Kbps
Video
ID : 0
Format : MPEG-4 Visual
Format profile : Advanced Simple@L5
Format settings, BVOP : 1
Format settings, QPel : No
Format settings, GMC : No warppoints
Format settings, Matrix : Default (MPEG)
Codec ID : XVID
Codec ID/Hint : XviD
Duration : 1h 32mn
Bit rate : 1 735 Kbps
Width : 720 pixels
Height : 528 pixels
Display aspect ratio : 4:3
Frame rate : 25.000 fps
Color space : YUV
Chroma subsampling : 4:2:0
Bit depth : 8 bits
Scan type : Progressive
Compression mode : Lossy
Bits/(Pixel*Frame) : 0.183
Stream size : 1.12 GiB (81%)
Writing library : XviD 1.2.1 (UTC 2008-12-04)
Audio #1
ID : 1
Format : AC-3
Format/Info : Audio Coding 3
Mode extension : CM (complete main)
Format settings, Endianness : Big
Codec ID : 2000
Duration : 1h 32mn
Bit rate mode : Constant
Bit rate : 192 Kbps
Channel(s) : 2 channels
Channel positions : Front: L R
Sampling rate : 48.0 KHz
Compression mode : Lossy
Stream size : 126 MiB (9%)
Alignment : Split accross interleaves
Interleave, duration : 40 ms (1.00 video frame)
Interleave, preload duration : 500 ms
Audio #2
ID : 2
Format : AC-3
Format/Info : Audio Coding 3
Mode extension : CM (complete main)
Format settings, Endianness : Big
Codec ID : 2000
Duration : 1h 32mn
Bit rate mode : Constant
Bit rate : 192 Kbps
Channel(s) : 2 channels
Channel positions : Front: L R
Sampling rate : 48.0 KHz
Compression mode : Lossy
Stream size : 127 MiB (9%)
Alignment : Split accross interleaves
Interleave, duration : 40 ms (1.00 video frame)
Interleave, preload duration : 500 ms

Скриншот c названием фильма

Скриншоты



[torrentc.info]_torrent-5336507.torrent
Торрент: Зарегистрирован ·  [ 2017-02-14 19:18 ] ·  e7e7121cf3bf94aa0dfac49c3b3c55ba3cc00b38

14 KB

Статус: проверено
Скачан: 0 раз
Размер: 1.37 GB
Оценка: 
(Голосов: 0)
Сказали спасибо: 0  Спасибо
Похожие темы
[Профиль]    [ЛС]
Показать сообщения:    
Ответить на тему

Текущее время: Сегодня 18:59

Часовой пояс: GMT + 7



Вы не можете начинать темы
Вы не можете отвечать на сообщения
Вы не можете редактировать свои сообщения
Вы не можете удалять свои сообщения
Вы не можете голосовать в опросах
Вы не можете прикреплять файлы к сообщениям
Вы можете скачивать файлы