Затишье (Виталий Четвериков) [1981, мелодрама, SATRip-AVC]

Ответить на тему
Статистика раздачи [Обновить пиров]
Размер:  2.18 GB   |    Зарегистрирован:  1 год 9 месяцев   |    Скачан:  0 раз

Полного источника не было: Никогда

 
   
 
 
 
Автор Сообщение

torrentc.info

Создавать темы 14-Фев-2017 20:25

[Цитировать]

Затишье (2 серии)- Жанр: мелодрама
Год выхода: 1981
Продолжительность: 02:07:54 (01:03:45 + 01:04:09)-Режиссёр: Виталий Четвериков-В ролях:
Аристарх Ливанов, Виктор Тарасов, Ольга Чиповская, Ирина Дымченко, Владимир Анисько, Михаил Глузский, Михаил Боярский, Виктор Ильичёв, Борис Юрченко, Эдуард Горячий, Иван Мацкевич, Стефания Станюта, Артём Иноземцев, Антонина Бендова, Владимир Кулешов
Описание:
Экранизация одноименной повести Ивана Сергеевича Тургенева.
Владимир Сергеевич Астахов приезжает в свое имение Стасово. Вскоре соседский помещик знакомит Астахова со своей свояченицей, Марией Павловной. Маша производит сильное впечатление на Астахова. Он надеется поближе познакомиться с ней на балу у помещика Акилина, но на балу происходит недоразумение, из-за которого Астахов попадает на дуэль.-[url=viewtopic.php?t=4244349]Источник: Torrentc.org[/url] | Сэмпл | Кинопоиск-Качество видео: SATRip-AVC, благодарю Cheef mate за Источник: Torrentc.org.
Формат файла: MKV
Видео: x264: (High@L4.1); 718@765x572, Display aspect ratio 1.337:1, 25.000 fps, 2249 Kbps
Аудио: AC-3; 16 bit 48 Khz; 2.0ch 192 Kbps; CBR

MediaInfo

avs [info]: 718x572p 16:15 @ 25/1 fps (cfr)
x264 [info]: using SAR=16/15
x264 [info]: profile High, level 4.1
x264 [info]: frame I:975 Avg QP:18.18 size: 68105
x264 [info]: frame P:40841 Avg QP:19.83 size: 26710
x264 [info]: frame B:150047 Avg QP:21.35 size: 6665
x264 [info]: consecutive B-frames: 1.4% 1.8% 6.2% 21.4% 21.2% 41.7% 4.8% 1.3% 0.2%
x264 [info]: ref P L0: 36.1% 12.8% 14.1% 6.9% 5.6% 4.4% 4.0% 2.4% 2.3% 2.0% 1.9% 1.7% 1.7% 1.5% 1.5% 1.1%
x264 [info]: ref B L0: 73.9% 8.2% 4.0% 2.6% 2.0% 1.8% 1.5% 1.0% 0.9% 0.9% 0.8% 0.8% 0.7% 0.6% 0.3%
x264 [info]: ref B L1: 96.9% 3.1%
x264 [info]: kb/s:2248.86--General
Unique ID : 239981412199834733674778060226706387620 (0xB48ABD2106DFEC77AE695DF46219B2A4)
Complete name : Затишье.1981.mkv
Format : Matroska
Format version : Version 2
File size : 2.18 GiB
Duration : 2h 7mn
Overall bit rate : 2 443 Kbps
Encoded date : UTC 2017-01-27 18:09:13
Writing application : mkvmerge v7.8.0 ('River Man') 32bit built on Mar 27 2015 16:18:02
Writing library : libebml v1.3.1 + libmatroska v1.4.2
Video
ID : 1
Format : AVC
Format/Info : Advanced Video Codec
Format profile : High@L4.1
Format settings, CABAC : Yes
Format settings, ReFrames : 16 frames
Codec ID : V_MPEG4/ISO/AVC
Duration : 2h 7mn
Bit rate : 2 249 Kbps
Width : 718 pixels
Height : 572 pixels
Display aspect ratio : 4:3
Original display aspect rat : 4:3
Frame rate mode : Constant
Frame rate : 25.000 fps
Color space : YUV
Chroma subsampling : 4:2:0
Bit depth : 8 bits
Scan type : Progressive
Bits/(Pixel*Frame) : 0.219
Stream size : 1.97 GiB (90%)
Title : Затишье.1981
Writing library : x264 core 148 r2721kMod 72d53ab
Encoding settings : cabac=1 / ref=16 / deblock=1:-2:-1 / analyse=0x3:0x133 / me=umh / subme=10 / psy=1 / fade_compensate=0.00 / psy_rd=0.95:0.15 / mixed_ref=1 / me_range=32 / chroma_me=1 / trellis=2 / 8x8dct=1 / cqm=0 / deadzone=21,11 / fast_pskip=0 / chroma_qp_offset=-3 / threads=12 / lookahead_threads=2 / sliced_threads=0 / nr=0 / decimate=0 / interlaced=0 / bluray_compat=0 / constrained_intra=0 / fgo=0 / bframes=8 / b_pyramid=2 / b_adapt=2 / b_bias=0 / direct=3 / weightb=1 / open_gop=0 / weightp=2 / keyint=250 / keyint_min=25 / scenecut=40 / intra_refresh=0 / rc_lookahead=60 / rc=2pass / mbtree=0 / bitrate=2249 / ratetol=1.0 / qcomp=0.60 / qpmin=0 / qpmax=69 / qpstep=4 / cplxblur=20.0 / qblur=0.5 / vbv_maxrate=62500 / vbv_bufsize=78125 / nal_hrd=none / filler=0 / ip_ratio=1.35 / pb_ratio=1.30 / aq=3:0.80
Language : Russian
Default : Yes
Forced : No
Color primaries : BT.601 PAL
Transfer characteristics : BT.470 System B, BT.470 System G
Matrix coefficients : BT.601
Color range : Limited
Audio
ID : 2
Format : AC-3
Format/Info : Audio Coding 3
Mode extension : CM (complete main)
Format settings, Endianness : Big
Codec ID : A_AC3
Duration : 2h 7mn
Bit rate mode : Constant
Bit rate : 192 Kbps
Channel(s) : 2 channels
Channel positions : Front: L R
Sampling rate : 48.0 KHz
Bit depth : 16 bits
Compression mode : Lossy
Stream size : 176 MiB (8%)
Title : AC-3; 16 bit 48 Khz; 2.0ch 192 Kbps; CBR
Language : Russian
Default : Yes
Forced : No
Menu
00:00:00.000 : ru:1 серия
01:03:44.960 : ru:2 серия

Скриншоты

vs. satrip
[url=viewtopic.php?t=4277118]http://Torrentc.org/forum/viewtopic.php?t=4277118[/url]


[torrentc.info]_torrent-5349073.torrent
Торрент: Зарегистрирован ·  [ 2017-02-14 20:24 ] ·  85cfbef214af45636cb9955efbe73faa0e9d1dc9

11 KB

Статус: проверено
Скачан: 0 раз
Размер: 2.18 GB
Оценка: 
(Голосов: 0)
Сказали спасибо: 0  Спасибо
Похожие темы
[Профиль]    [ЛС]
Показать сообщения:    
Ответить на тему

Текущее время: Сегодня 15:44

Часовой пояс: GMT + 7



Вы не можете начинать темы
Вы не можете отвечать на сообщения
Вы не можете редактировать свои сообщения
Вы не можете удалять свои сообщения
Вы не можете голосовать в опросах
Вы не можете прикреплять файлы к сообщениям
Вы можете скачивать файлы