Предел возможного (Павел Коган, Петр Мостовой) [1984, драма, SATRip]

Ответить на тему
Статистика раздачи [Обновить пиров]
Размер:  3.55 GB   |    Зарегистрирован:  1 год 9 месяцев   |    Скачан:  1 раз

Полного источника не было: 4 месяца 19 дней

 
   
 
 
 
Автор Сообщение

torrentc.info

Создавать темы 14-Фев-2017 20:25

[Цитировать]

Предел возможного
Жанр: драма
Год выхода: 1984
Продолжительность: 05:49:54 (01:08:53 + 01:08:02 + 01:11:27 + 01:15:31 + 01:06:00)
Режиссёр: Павел Коган, Петр Мостовой
В ролях: Виталий Соломин, Ирина Бразговка (озвучание - Анна Каменкова), Андрей Болтнев, Евгений Евстигнеев, Владимир Земляникин, Елена Ивочкина, Юрий Кузнецов, Авангард Леонтьев, Марина Шиманская, Тамара Логинова, Александр Пашутин, Раиса Рязанова, Валентин Смирнитский, Юрий Ступаков, Николай Скоробогатов, Наталия Селиверстова, Татьяна Новицкая, Александр Назаров, Валентина Устимович, Алексей Михайлов, Ростислав Янковский, Наталья Молева, Сергей Цейц, Фёдор Одиноков, Ерванд Арзуманян, Игорь Класс, Николай Сморчков, Вадим Грачёв, Михаил Бычков, Михаил Бочаров, Иван Косых, Леонид Трутнев, Елена Дробышева, Юрий Назаров, Леонид Плешаков, Вадим Вильский, Валентин Брылеев, Нина Гребешкова, Владимир Кадочников, Олег Шкловский, Юрий Волков, Лев Золотухин, Чеслав Сушкевич, Иван Турченков, Евгений Марков
Описание: Герой фильма — Игнат Матвеевич Ремез — прошел путь от молодого специалиста в годы Великой Отечественной войны до руководителя крупного промышленного предприятия в мирное время.
Доп. информация: Рип сделан из этого [url=viewtopic.php?t=5163984]DVB[/url]-- --Предел возможного_(1984)_DVBRip_Sample_.avi--Качество видео: SATRip
Формат файла: AVI
Видео: 512x384 (1.33:1), 25 fps, XviD build 73 ~1186 kbps avg, 0.24 bit/pixel
Аудио: 48 kHz, AC3 Dolby Digital, 2/0 (L,R) ch, ~192 kbps

AviInfo

File: Предел возможного_(1984)_DVBRip_Серия - 1_.avi
Title: Предел возможного (1984)
Author: Павел Коган, Петр Мостовой
Copyleft: Ripped_by_rjhlb777
Genre: Драма
Category: Мини-сериал
Comment: Original Rus
FileSize: 722.86 Mb ( 757 972 992 bytes )
Play length: 01:08:53.479 (103337 frames)
Subtitles: Not Present
Video: 512x384 (1.33:1), 25 fps, XviD build 73 ~1265 kbps avg, 0.26 bit/pixel
Audio: 48 kHz, AC3 Dolby Digital, 2/0 (L,R) ch, ~192 kbps--File: Предел возможного_(1984)_DVBRip_Серия - 2_.avi
Title: Предел возможного (1984)
Author: Павел Коган, Петр Мостовой
Copyleft: Ripped_by_rjhlb777
Genre: Драма
Category: Мини-сериал
Comment: Original Rus
FileSize: 714.53 Mb ( 749 234 176 bytes )
Play length: 01:08:02.639 (102066 frames)
Subtitles: Not Present
Video: 512x384 (1.33:1), 25 fps, XviD build 73 ~1266 kbps avg, 0.26 bit/pixel
Audio: 48 kHz, AC3 Dolby Digital, 2/0 (L,R) ch, ~192 kbps--File: Предел возможного_(1984)_DVBRip_Серия - 3_.avi
Title: Предел возможного (1984)
Author: Павел Коган, Петр Мостовой
Copyleft: Ripped_by_rjhlb777
Genre: Драма
Category: Мини-сериал
Comment: Original Rus
FileSize: 749.78 Mb ( 786 196 480 bytes )
Play length: 01:11:27.439 (107186 frames)
Subtitles: Not Present
Video: 512x384 (1.33:1), 25 fps, XviD build 73 ~1265 kbps avg, 0.26 bit/pixel
Audio: 48 kHz, AC3 Dolby Digital, 2/0 (L,R) ch, ~192 kbps--File: Предел возможного_(1984)_DVBRip_Серия - 4_.avi
Title: Предел возможного (1984)
Author: Павел Коган, Петр Мостовой
Copyleft: Ripped_by_rjhlb777
Genre: Драма
Category: Мини-сериал
Comment: Original Rus
FileSize: 749.90 Mb ( 786 331 648 bytes )
Play length: 01:15:31.080 (113277 frames)
Subtitles: Not Present
Video: 512x384 (1.33:1), 25 fps, XviD build 73 ~1186 kbps avg, 0.24 bit/pixel
Audio: 48 kHz, AC3 Dolby Digital, 2/0 (L,R) ch, ~192 kbps--File: Предел возможного_(1984)_DVBRip_Серия - 5_.avi
Title: Предел возможного (1984)
Author: Павел Коган, Петр Мостовой
Copyleft: Ripped_by_rjhlb777
Genre: Драма
Category: Мини-сериал
Comment: Original Rus
FileSize: 693.20 Mb ( 726 876 160 bytes )
Play length: 01:06:00.000 (99000 frames)
Subtitles: Not Present
Video: 512x384 (1.33:1), 25 fps, XviD build 73 ~1266 kbps avg, 0.26 bit/pixel
Audio: 48 kHz, AC3 Dolby Digital, 2/0 (L,R) ch, ~192 kbps

MediaInfo

General
Complete name : I:\111\Предел возможного_(1984)_DVBRip_\Предел возможного_(1984)_DVBRip_Серия - 1_.avi
Format : AVI
Format/Info : Audio Video Interleave
File size : 723 MiB
Duration : 1 h 8 min
Overall bit rate : 1 467 kb/s
Movie name : Предел возможного (1984)
Director : Павел Коган, Петр Мостовой
Genre : Драма
Writing application : VirtualDubMod 1.5.10.3 | www.virtualdub-fr.org || (build 2550/release)
Original source form/Name : Мини-сериал
Copyright : Ripped_by_rjhlb777
Comment : Original Rus
Video
ID : 0
Format : MPEG-4 Visual
Format profile : Advanced Simple@L5
Format settings, BVOP : 1
Format settings, QPel : No
Format settings, GMC : No warppoints
Format settings, Matrix : Custom
Codec ID : XVID
Codec ID/Hint : XviD
Duration : 1 h 8 min
Bit rate : 1 265 kb/s
Width : 512 pixels
Height : 384 pixels
Display aspect ratio : 4:3
Frame rate : 25.000 FPS
Color space : YUV
Chroma subsampling : 4:2:0
Bit depth : 8 bits
Scan type : Progressive
Compression mode : Lossy
Bits/(Pixel*Frame) : 0.257
Stream size : 623 MiB (86%)
Writing library : XviD 73
Audio
ID : 1
Format : AC-3
Format/Info : Audio Coding 3
Mode extension : CM (complete main)
Format settings, Endianness : Big
Codec ID : 2000
Duration : 1 h 8 min
Bit rate mode : Constant
Bit rate : 192 kb/s
Channel(s) : 2 channels
Channel positions : Front: L R
Sampling rate : 48.0 kHz
Frame rate : 31.250 FPS (1536 spf)
Bit depth : 16 bits
Compression mode : Lossy
Stream size : 94.6 MiB (13%)
Alignment : Split accross interleaves
Interleave, duration : 40 ms (1.00 video frame)
Interleave, preload duratio : 500 ms--General
Complete name : I:\111\Предел возможного_(1984)_DVBRip_\Предел возможного_(1984)_DVBRip_Серия - 2_.avi
Format : AVI
Format/Info : Audio Video Interleave
File size : 715 MiB
Duration : 1 h 8 min
Overall bit rate : 1 468 kb/s
Movie name : Предел возможного (1984)
Director : Павел Коган, Петр Мостовой
Genre : Драма
Writing application : VirtualDubMod 1.5.10.3 | www.virtualdub-fr.org || (build 2550/release)
Original source form/Name : Мини-сериал
Copyright : Ripped_by_rjhlb777
Comment : Original Rus
Video
ID : 0
Format : MPEG-4 Visual
Format profile : Advanced Simple@L5
Format settings, BVOP : 1
Format settings, QPel : No
Format settings, GMC : No warppoints
Format settings, Matrix : Custom
Codec ID : XVID
Codec ID/Hint : XviD
Duration : 1 h 8 min
Bit rate : 1 266 kb/s
Width : 512 pixels
Height : 384 pixels
Display aspect ratio : 4:3
Frame rate : 25.000 FPS
Color space : YUV
Chroma subsampling : 4:2:0
Bit depth : 8 bits
Scan type : Progressive
Compression mode : Lossy
Bits/(Pixel*Frame) : 0.258
Stream size : 616 MiB (86%)
Writing library : XviD 73
Audio
ID : 1
Format : AC-3
Format/Info : Audio Coding 3
Mode extension : CM (complete main)
Format settings, Endianness : Big
Codec ID : 2000
Duration : 1 h 8 min
Bit rate mode : Constant
Bit rate : 192 kb/s
Channel(s) : 2 channels
Channel positions : Front: L R
Sampling rate : 48.0 kHz
Frame rate : 31.250 FPS (1536 spf)
Bit depth : 16 bits
Compression mode : Lossy
Stream size : 93.4 MiB (13%)
Alignment : Split accross interleaves
Interleave, duration : 40 ms (1.00 video frame)
Interleave, preload duratio : 500 ms--General
Complete name : I:\111\Предел возможного_(1984)_DVBRip_\Предел возможного_(1984)_DVBRip_Серия - 3_.avi
Format : AVI
Format/Info : Audio Video Interleave
File size : 750 MiB
Duration : 1 h 11 min
Overall bit rate : 1 467 kb/s
Movie name : Предел возможного (1984)
Director : Павел Коган, Петр Мостовой
Genre : Драма
Writing application : VirtualDubMod 1.5.10.3 | www.virtualdub-fr.org || (build 2550/release)
Original source form/Name : Мини-сериал
Copyright : Ripped_by_rjhlb777
Comment : Original Rus
Video
ID : 0
Format : MPEG-4 Visual
Format profile : Advanced Simple@L5
Format settings, BVOP : 1
Format settings, QPel : No
Format settings, GMC : No warppoints
Format settings, Matrix : Custom
Codec ID : XVID
Codec ID/Hint : XviD
Duration : 1 h 11 min
Bit rate : 1 265 kb/s
Width : 512 pixels
Height : 384 pixels
Display aspect ratio : 4:3
Frame rate : 25.000 FPS
Color space : YUV
Chroma subsampling : 4:2:0
Bit depth : 8 bits
Scan type : Progressive
Compression mode : Lossy
Bits/(Pixel*Frame) : 0.257
Stream size : 647 MiB (86%)
Writing library : XviD 73
Audio
ID : 1
Format : AC-3
Format/Info : Audio Coding 3
Mode extension : CM (complete main)
Format settings, Endianness : Big
Codec ID : 2000
Duration : 1 h 11 min
Bit rate mode : Constant
Bit rate : 192 kb/s
Channel(s) : 2 channels
Channel positions : Front: L R
Sampling rate : 48.0 kHz
Frame rate : 31.250 FPS (1536 spf)
Bit depth : 16 bits
Compression mode : Lossy
Stream size : 98.1 MiB (13%)
Alignment : Split accross interleaves
Interleave, duration : 40 ms (1.00 video frame)
Interleave, preload duratio : 500 ms--General
Complete name : I:\111\Предел возможного_(1984)_DVBRip_\Предел возможного_(1984)_DVBRip_Серия - 4_.avi
Format : AVI
Format/Info : Audio Video Interleave
File size : 750 MiB
Duration : 1 h 15 min
Overall bit rate : 1 388 kb/s
Movie name : Предел возможного (1984)
Director : Павел Коган, Петр Мостовой
Genre : Драма
Writing application : VirtualDubMod 1.5.10.3 | www.virtualdub-fr.org || (build 2550/release)
Original source form/Name : Мини-сериал
Copyright : Ripped_by_rjhlb777
Comment : Original Rus
Video
ID : 0
Format : MPEG-4 Visual
Format profile : Advanced Simple@L5
Format settings, BVOP : 1
Format settings, QPel : No
Format settings, GMC : No warppoints
Format settings, Matrix : Custom
Codec ID : XVID
Codec ID/Hint : XviD
Duration : 1 h 15 min
Bit rate : 1 187 kb/s
Width : 512 pixels
Height : 384 pixels
Display aspect ratio : 4:3
Frame rate : 25.000 FPS
Color space : YUV
Chroma subsampling : 4:2:0
Bit depth : 8 bits
Scan type : Progressive
Compression mode : Lossy
Bits/(Pixel*Frame) : 0.241
Stream size : 641 MiB (85%)
Writing library : XviD 73
Audio
ID : 1
Format : AC-3
Format/Info : Audio Coding 3
Mode extension : CM (complete main)
Format settings, Endianness : Big
Codec ID : 2000
Duration : 1 h 15 min
Bit rate mode : Constant
Bit rate : 192 kb/s
Channel(s) : 2 channels
Channel positions : Front: L R
Sampling rate : 48.0 kHz
Frame rate : 31.250 FPS (1536 spf)
Bit depth : 16 bits
Compression mode : Lossy
Stream size : 104 MiB (14%)
Alignment : Split accross interleaves
Interleave, duration : 40 ms (1.00 video frame)
Interleave, preload duratio : 500 ms--General
Complete name : I:\111\Предел возможного_(1984)_DVBRip_\Предел возможного_(1984)_DVBRip_Серия - 5_.avi
Format : AVI
Format/Info : Audio Video Interleave
File size : 693 MiB
Duration : 1 h 6 min
Overall bit rate : 1 468 kb/s
Movie name : Предел возможного (1984)
Director : Павел Коган, Петр Мостовой
Genre : Драма
Writing application : VirtualDubMod 1.5.10.3 | www.virtualdub-fr.org || (build 2550/release)
Original source form/Name : Мини-сериал
Copyright : Ripped_by_rjhlb777
Comment : Original Rus
Video
ID : 0
Format : MPEG-4 Visual
Format profile : Advanced Simple@L5
Format settings, BVOP : 1
Format settings, QPel : No
Format settings, GMC : No warppoints
Format settings, Matrix : Custom
Codec ID : XVID
Codec ID/Hint : XviD
Duration : 1 h 6 min
Bit rate : 1 267 kb/s
Width : 512 pixels
Height : 384 pixels
Display aspect ratio : 4:3
Frame rate : 25.000 FPS
Color space : YUV
Chroma subsampling : 4:2:0
Bit depth : 8 bits
Scan type : Progressive
Compression mode : Lossy
Bits/(Pixel*Frame) : 0.258
Stream size : 598 MiB (86%)
Writing library : XviD 73
Audio
ID : 1
Format : AC-3
Format/Info : Audio Coding 3
Mode extension : CM (complete main)
Format settings, Endianness : Big
Codec ID : 2000
Duration : 1 h 6 min
Bit rate mode : Constant
Bit rate : 192 kb/s
Channel(s) : 2 channels
Channel positions : Front: L R
Sampling rate : 48.0 kHz
Frame rate : 31.250 FPS (1536 spf)
Bit depth : 16 bits
Compression mode : Lossy
Stream size : 90.6 MiB (13%)
Alignment : Split accross interleaves
Interleave, duration : 40 ms (1.00 video frame)
Interleave, preload duratio : 500 ms

Скриншоты сравнения

kurtpp [url=viewtopic.php?t=1877548]http://Torrentc.org/forum/viewtopic.php?t=1877548[/url]


[torrentc.info]_torrent-5348837.torrent
Торрент: Зарегистрирован ·  [ 2017-02-14 20:24 ] ·  951639d3fb4558ed953e716939be1b166a156e0c

19 KB

Статус: проверено
Скачан: 1 раз
Размер: 3.55 GB
Оценка: 
(Голосов: 0)
Сказали спасибо: 1  Спасибо   (список)
Похожие темы
[Профиль]    [ЛС]
Показать сообщения:    
Ответить на тему

Текущее время: Сегодня 17:58

Часовой пояс: GMT + 7



Вы не можете начинать темы
Вы не можете отвечать на сообщения
Вы не можете редактировать свои сообщения
Вы не можете удалять свои сообщения
Вы не можете голосовать в опросах
Вы не можете прикреплять файлы к сообщениям
Вы можете скачивать файлы