Судьба Марины (Исаак Шмарук, Виктор Ивченко) [1953, драма, SATRip]

Ответить на тему
Статистика раздачи [Обновить пиров]
Размер:  744 MB   |    Зарегистрирован:  1 год 9 месяцев   |    Скачан:  0 раз

Полного источника не было: Никогда

 
   
 
 
 
Автор Сообщение

torrentc.info

Создавать темы 14-Фев-2017 20:25

[Цитировать]

Судьба Марины
Год выхода: 1953
Жанр: драма
Продолжительность: 01:33:36.560 (140414 frames)
Субтитры: нет
Режиссер: Исаак Шмарук, Виктор Ивченко
В ролях: Екатерина Литвиненко, Николай Гриценко, Татьяна Конюхова, Александр Сердюк, Михаил Кузнецов, Борис Андреев, Нонна Копержинская, Римма Мануковская, Леонид Быков, Михаил Заднепровский, Варвара Чайка, Роза Макагонова, Олеся Иванова
Описание: Терентий покидает колхоз и едет в Киев учиться на агронома. Марина много работает и с нетерпением ждет возвращения мужа. Вернувшись домой, муж упрекает жену в необразованности, просит развод и уезжает в город. Оставшись с дочерью, она целиком отдается учебе и работе. Вскоре Марина получает звание Героя Социалистического Труда. Безуспешно пытается сблизиться с ней Терентий... Этот чужой и никчемный человек вызывает в ней только жалость…
Качество: SATRip
Формат файла: AVI
Видео кодек: XviD
Аудио кодек: МР3
Видео: 640x480 (1.33:1), 25 fps, XviD build 73 ~974 kbps avg, 0.13 bit/pixel
Аудио: 48 kHz, MPEG Layer 3, 2 ch, ~128.00 kbps avg

Скриншоты

Медиаинфо

F:\004 Мои раздачи\Судьба марины 745\sudba_mariny_745_[torrentc]_by_bm11.avi
General
Complete name : F:\004 Мои раздачи\Судьба марины 745\sudba_mariny_745_[torrentc]_by_bm11.avi
Format : AVI
Format/Info : Audio Video Interleave
File size : 744 MiB
Duration : 1h 33mn
Overall bit rate : 1 112 Kbps
Director : bm11
Writing application : VirtualDubMod 1.5.10.3 | www.virtualdub-fr.org || (build 2550/release)
Video
Format : MPEG-4 Visual
Format profile : Streaming Video@L1
Format settings, BVOP : Yes
Format settings, QPel : No
Format settings, GMC : No warppoints
Format settings, Matrix : Custom
Codec ID : XVID
Codec ID/Hint : XviD
Duration : 1h 33mn
Bit rate : 974 Kbps
Width : 640 pixels
Height : 480 pixels
Display aspect ratio : 4/3
Frame rate : 25.000 fps
Resolution : 24 bits
Colorimetry : 4:2:0
Scan type : Progressive
Bits/(Pixel*Frame) : 0.127
Stream size : 652 MiB (88%)
Writing library : XviD 73
Audio
Format : MPEG Audio
Format version : Version 1
Format profile : Layer 3
Codec ID : 55
Codec ID/Hint : MP3
Duration : 1h 33mn
Bit rate mode : Constant
Bit rate : 128 Kbps
Minimum bit rate : 128 Kbps
Channel(s) : 2 channels
Sampling rate : 48.0 KHz
Resolution : 16 bits
Stream size : 85.7 MiB (12%)
Alignment : Aligned on interleaves
Interleave, duration : 40 ms (1.00 video frame)
Interleave, preload duration : 504 ms
Writing library : LAME3.99r
Encoding settings : CBR

Источник: Torrentc.org

[url=viewtopic.php?t=4086843]http://Torrentc.org/forum/viewtopic.php?t=4086843[/url]

Источник: Torrentc.org

[url=viewtopic.php?t=2601048]http://Torrentc.org/forum/viewtopic.php?t=2601048[/url]


[torrentc.info]_torrent-5348058.torrent
Торрент: Зарегистрирован ·  [ 2017-02-14 20:24 ] ·  4d349003ee6ebd9d37d0c2ef516619412928b958

15 KB

Статус: проверено
Скачан: 0 раз
Размер: 744 MB
Оценка: 
(Голосов: 0)
Сказали спасибо: 0  Спасибо
Похожие темы
[Профиль]    [ЛС]
Показать сообщения:    
Ответить на тему

Текущее время: Сегодня 17:49

Часовой пояс: GMT + 7



Вы не можете начинать темы
Вы не можете отвечать на сообщения
Вы не можете редактировать свои сообщения
Вы не можете удалять свои сообщения
Вы не можете голосовать в опросах
Вы не можете прикреплять файлы к сообщениям
Вы можете скачивать файлы