Калина красная (Василий Шукшин) [1973, драма, WEB-DLRip-AVC]

Ответить на тему
Статистика раздачи [Обновить пиров]
Размер:  1.45 GB   |    Зарегистрирован:  1 год 9 месяцев   |    Скачан:  0 раз

Полного источника не было: Никогда

 
   
 
 
 
Автор Сообщение

torrentc.info

Создавать темы 14-Фев-2017 20:25

[Цитировать]

Калина красная
Студия: Мосфильм
Жанр: драма
Год выхода: 1973
Продолжительность: 01:41:53
Субтитры: английские
Режиссёр: Василий Шукшин
В ролях: Василий Шукшин, Лидия Федосеева-Шукшина, Алексей Ванин, Георгий Бурков, Мария Виноградова, Наталия Гвоздикова, Лев Дуров, Николай Погодин, Жанна Прохоренко, Иван Рыжов, Татьяна Гаврилова, Мария Скворцова, Алексей Бахарь, Олег Корчиков, Валентина Ананьина
Описание: Выйдя из тюрьмы, вор-рецидивист Егор Прокудин по кличке Горе подался было сначала к подружке Нинон - та уехала с другим на Север, завалился к дружкам-подельникам на "малину" - попал в облаву, еле ушёл от милиции. И решил он отправиться в деревню, где живёт "заочница" Люба Байкалова - женщина, с которой Егор познакомился по переписке, сидя в тюрьме; ведь надо где-то немного переждать и осмотреться. Но жизнь в деревне переворачивает всё в душе Егора, и он решает навсегда порвать с прошлым. Однако, бывшие дружки Егора не собираются с этим мириться..

Семпл: http://multi-up.com/1136914
Качество видео: WEB-DLRip
Формат файла: MKV
Видео: 736x552 at 25.000 fps, MPEG-4 AVC, ~1818 kbps
Аудио: 48 kHz, AC3, 1/0 (C), ~224 kbps
Формат файла субтитров: softsub (SRT)

Источник: Torrentc.org

WEB-DL-Rip-1080p
Источник: Torrentc.org george$t

MediaInfo

Format : Matroska
Format version : Version 2
File size : 1.45 GiB
Duration : 1h 41mn
Overall bit rate : 2 044 Kbps
Movie name : Калина красная (1973)
Encoded date : UTC 2017-01-22 10:22:24
Writing application : mkvmerge v3.4.0 ('Rapunzel') built on May 15 2010 09:38:20
Writing library : libebml v0.8.0 + libmatroska v0.9.0
Video
ID : 1
Format : AVC
Format/Info : Advanced Video Codec
Format profile : High@L4.1
Format settings, CABAC : Yes
Format settings, ReFrames : 11 frames
Codec ID : V_MPEG4/ISO/AVC
Duration : 1h 41mn
Bit rate : 1 818 Kbps
Width : 736 pixels
Height : 552 pixels
Display aspect ratio : 4:3
Frame rate mode : Constant
Frame rate : 25.000 fps
Color space : YUV
Chroma subsampling : 4:2:0
Bit depth : 8 bits
Scan type : Progressive
Bits/(Pixel*Frame) : 0.179
Stream size : 1.27 GiB (87%)
Title : MPEG-4 (AVC)
Writing library : x264 core 148 r2744 b97ae06
Encoding settings : cabac=1 / ref=11 / deblock=1:-2:-1 / analyse=0x3:0x133 / me=umh / subme=9 / psy=1 / psy_rd=1.00:0.10 / mixed_ref=1 / me_range=32 / chroma_me=1 / trellis=2 / 8x8dct=1 / cqm=0 / deadzone=21,11 / fast_pskip=0 / chroma_qp_offset=-3 / threads=3 / lookahead_threads=1 / sliced_threads=0 / nr=0 / decimate=1 / interlaced=0 / bluray_compat=0 / constrained_intra=0 / bframes=9 / b_pyramid=2 / b_adapt=2 / b_bias=0 / direct=3 / weightb=1 / open_gop=0 / weightp=2 / keyint=250 / keyint_min=25 / scenecut=40 / intra_refresh=0 / rc_lookahead=80 / rc=2pass / mbtree=1 / bitrate=1818 / ratetol=1.0 / qcomp=0.60 / qpmin=0 / qpmax=69 / qpstep=4 / cplxblur=20.0 / qblur=0.5 / ip_ratio=1.40 / aq=1:1.00
Language : Russian
Default : Yes
Forced : No
Matrix coefficients : BT.709
Audio
ID : 2
Format : AC-3
Format/Info : Audio Coding 3
Mode extension : CM (complete main)
Format settings, Endianness : Big
Codec ID : A_AC3
Duration : 1h 41mn
Bit rate mode : Constant
Bit rate : 224 Kbps
Channel(s) : 1 channel
Channel positions : Front: C
Sampling rate : 48.0 KHz
Bit depth : 16 bits
Compression mode : Lossy
Stream size : 163 MiB (11%)
Title : AC3 1.0 @ 224 kbps
Language : Russian
Default : Yes
Forced : No
Text
ID : 3
Format : UTF-8
Codec ID : S_TEXT/UTF8
Codec ID/Info : UTF-8 Plain Text
Title : Full
Language : English
Default : No
Forced : No

Скриншоты



[torrentc.info]_torrent-5345574.torrent
Торрент: Зарегистрирован ·  [ 2017-02-14 20:24 ] ·  d77eb3d13f066302bd21322374de65934abf2a3c

15 KB

Статус: проверено
Скачан: 0 раз
Размер: 1.45 GB
Оценка: 
(Голосов: 0)
Сказали спасибо: 0  Спасибо
Похожие темы
[Профиль]    [ЛС]
Показать сообщения:    
Ответить на тему

Текущее время: Сегодня 16:27

Часовой пояс: GMT + 7



Вы не можете начинать темы
Вы не можете отвечать на сообщения
Вы не можете редактировать свои сообщения
Вы не можете удалять свои сообщения
Вы не можете голосовать в опросах
Вы не можете прикреплять файлы к сообщениям
Вы можете скачивать файлы