Луч смерти (Лев Кулешов) [1925, немое, фантастика, SATRip]

Ответить на тему
Статистика раздачи [Обновить пиров]
Размер:  1.37 GB   |    Зарегистрирован:  1 год 10 месяцев   |    Скачан:  0 раз

Полного источника не было: Никогда

 
   
 
 
 
Автор Сообщение

torrentc.info

Создавать темы 14-Фев-2017 20:25

[Цитировать]

Луч смерти
Жанр: немое, фантастика
Год выхода: 1925
Продолжительность: 01:16:27
Режиссёр: Лев Кулешов
В ролях: Порфирий Подобед (Подобед), Всеволод Пудовкин (отец Рево), Сергей Комаров (Томас Ланн), Владимир Фогель (Фог), Александра Хохлова (сестра Эдит), Сергей Хохлов (Фредди), Андрей Горчилин (Рапп), Анна Чекулаева (жена Раппа), Петр Галаджев (директор цирка), Леонид Оболенский (майор Хард).
Описание: Действие происходит в одной из капиталистических стран и сосредотачивается вокруг изобретенного советским инженером Подобедом 'луча смерти' - аппарата, взрывающего горючие смеси на расстоянии. Агенты вражеской разведки выкрадывают изобретение и оно становится орудием подавления рабочей забастовки в их стране. Однако рабочие захватывают аппарат и с его помощью взрывают в воздухе посланные против них бомбардировщики. Фильм, по существу являющийся экспериментальной картиной творческой мастерской Кулешова, был подвергнут резкой критике в органах печати и отвергнут зрителем. Сохранился без 4-й части.
Семпл: http://multi-up.com/1136619
Качество видео: SATRip
Формат файла: AVI
Видео: MPEG4, XviD, 704x528 (4:3), 25.000 fps, 2 362 Kbps (0.254 bit/pixel)
Аудио: AC-3, 48.0 KHz, 2 ch, 192 Kbps, CBR

MediaInfo

Общее
Полное имя : M:\Луч смерти.avi
Формат файла : AVI
Формат файла/Информация : Audio Video Interleave
Размер файла : 1,37 Гбайт
Продолжительность : 1 ч. 16 м.
Общий поток : 2564 Кбит/сек
Название фильма : Луч смерти (1925)
Программа кодирования : VirtualDubMod 1.5.10.2 (build 2540/release)
Библиотека кодирования : VirtualDubMod build 2540/release
Авторское право : miha2154
Видео
Идентификатор : 0
Формат файла : MPEG-4 Visual
Профиль формата : Advanced Simple@L5
Параметр BVOP формата : 1
Параметр QPel формата : Нет
Параметр GMC формата : Без точки перехода
Параметр матрицы формата : Выборочная
Идентификатор кодека : XVID
Идентификатор кодека/Подсказка : XviD
Продолжительность : 1 ч. 16 м.
Битрейт : 2362 Кбит/сек
Ширина : 704 пикселя
Высота : 528 пикселей
Соотношение сторон : 4:3
Частота кадров : 25,000 кадров/сек
Цветовое пространство : YUV
Субдискретизация насыщенности : 4:2:0
Битовая глубина : 8 бит
Тип развёртки : Прогрессивная
Метод сжатия : С потерями
Бит/(Пиксели*Кадры) : 0.254
Размер потока : 1,26 Гбайт (92%)
Библиотека кодирования : XviD 65
Аудио
Идентификатор : 1
Формат файла : AC-3
Формат файла/Информация : Audio Coding 3
Расширение режима : CM (complete main)
Параметр Endianness формата : Big
Идентификатор кодека : 2000
Продолжительность : 1 ч. 16 м.
Вид битрейта : Постоянный
Битрейт : 192 Кбит/сек
Каналы : 2 канала
Расположение каналов : Front: L R
Частота : 48,0 КГц
Частота кадров : 31,250 кадров/сек (1536 spf)
Метод сжатия : С потерями
Размер потока : 105 Мбайт (7%)
Выравнивание : Разделение по промежуткам
Продолжительность промежутка : 40 мс. (1,00 видеокадр)
Время предзагрузки промежутка : 500 мс.

Скриншоты




[torrentc.info]_torrent-5344473.torrent
Торрент: Зарегистрирован ·  [ 2017-02-14 20:24 ] ·  ca76fc0d0ff08587b4bcb1efda3bc3a10704f440

14 KB

Статус: проверено
Скачан: 0 раз
Размер: 1.37 GB
Оценка: 
(Голосов: 0)
Сказали спасибо: 0  Спасибо
Похожие темы
[Профиль]    [ЛС]
Показать сообщения:    
Ответить на тему

Текущее время: Сегодня 23:43

Часовой пояс: GMT + 7



Вы не можете начинать темы
Вы не можете отвечать на сообщения
Вы не можете редактировать свои сообщения
Вы не можете удалять свои сообщения
Вы не можете голосовать в опросах
Вы не можете прикреплять файлы к сообщениям
Вы можете скачивать файлы