Люди и манекены (4 серии из 4) (Аркадий Райкин, Виктор Храмов) [1974, Сатира, комедия, DVDRip-AVC]

Ответить на тему
Статистика раздачи [Обновить пиров]
Размер:  4.12 GB   |    Зарегистрирован:  1 год 9 месяцев   |    Скачан:  1 раз

Полного источника не было: 5 месяцев 24 дня

 
   
 
 
 
Автор Сообщение

torrentc.info

Создавать темы 14-Фев-2017 20:25

[Цитировать]

Люди и манекены (4 серии из 4-ёх)
Жанр: Сатира, комедия
Год выхода: 1974
Продолжительность: 295 мин
Режиссёры: Аркадий Райкин, Виктор Храмов
В ролях: Аркадий Райкин, Виктория Горшенина, Ольга Малозёмова, Владимир Ляховицкий, Татьяна Рогозина
Описание: Миниатюры, интермедии и монологи в исполнении народного артиста СССР А. И. Райкина и актёров Ленинградского государственного театра миниатюр: "Холостяк", "Родительское собрание", "Смеяться, право, не грешно", "Многоберидзе", "Париж", "Насосы", "Сила слова", "Ласточкина", "Рационализатор" и другие.

Качество видео: DVDRip-AVC (за [url=viewtopic.php?t=1005507]Источник: Torrentc.org[/url] спасибо aleshka666)
Навигация по главам: есть
Формат файла: MKV
Видео: AVC, 716x572@763x572 (1.33:1), 25 fps, 1646-1875 kbps avg
Аудио: AC3, 48 kHz, mono, 224 kbps (оригинал)

MI1 серияx264 log

x264.exe: --crf 17.5 --preset slower --level 4.1 --ref 14 --deblock -1:-2 --merange 32 --bframes 9 --direct spatial --psy-rd 1.04:0.08 --subme 10 --rc-lookahead 50 --vbv-bufsize 0 --vbv-maxrate 0 --partitions p8x8,b8x8,i4x4,i8x8 --sar 16:15 --output "F:\Temp\1013.264" "F:\Temp\1013.avs"
avs [info]: 716x572p 16:15 @ 25/1 fps (cfr)
x264 [info]: using SAR=16/15
x264 [info]: using cpu capabilities: MMX2 SSE2Fast SSSE3 SSE4.2 AVX
x264 [info]: profile High, level 4.1
x264 [info]: frame I:527 Avg QP:15.02 size: 53318
x264 [info]: frame P:21633 Avg QP:18.03 size: 20579
x264 [info]: frame B:91681 Avg QP:21.42 size: 5694
x264 [info]: consecutive B-frames: 0.7% 0.8% 4.1% 13.5% 11.7% 62.5% 4.9% 1.0% 0.6% 0.2%
x264 [info]: mb I I16..4: 4.9% 80.8% 14.3%
x264 [info]: mb P I16..4: 0.6% 10.4% 1.0% P16..4: 44.0% 27.1% 13.4% 0.0% 0.0% skip: 3.5%
x264 [info]: mb B I16..4: 0.0% 0.9% 0.1% B16..8: 42.7% 9.4% 1.9% direct: 6.7% skip:38.3% L0:42.3% L1:42.5% BI:15.2%
x264 [info]: 8x8 transform intra:86.0% inter:69.9%
x264 [info]: coded y,uvDC,uvAC intra: 93.2% 69.1% 35.8% inter: 25.7% 19.1% 1.2%
x264 [info]: i16 v,h,dc,p: 27% 16% 13% 44%
x264 [info]: i8 v,h,dc,ddl,ddr,vr,hd,vl,hu: 13% 11% 7% 8% 12% 13% 12% 12% 13%
x264 [info]: i4 v,h,dc,ddl,ddr,vr,hd,vl,hu: 13% 11% 3% 8% 13% 14% 13% 11% 12%
x264 [info]: i8c dc,h,v,p: 36% 27% 23% 14%
x264 [info]: Weighted P-Frames: Y:33.1% UV:19.5%
x264 [info]: ref P L0: 35.4% 9.9% 14.4% 7.7% 6.6% 5.4% 4.5% 2.7% 2.5% 2.3% 2.1% 2.0% 1.9% 1.9% 0.6% 0.0%
x264 [info]: ref B L0: 74.0% 9.7% 4.4% 2.7% 2.0% 1.8% 1.4% 0.9% 0.8% 0.8% 0.7% 0.5% 0.3%
x264 [info]: ref B L1: 95.2% 4.8%
x264 [info]: kb/s:1748.66
encoded 113841 frames, 11.22 fps, 1748.66 kb/s
General
Unique ID : 209192324769940436878799294425586855545 (0x9D60F9EAEECF3C1889AE2ABBE985EE79)
Complete name : D:\Видео\Фильмы\Люди и манекены (1974)\01-Люди и манекены.mkv
Format : Matroska
Format version : Version 4 / Version 2
File size : 1.05 GiB
Duration : 1h 15mn
Overall bit rate : 1 974 Kbps
Encoded date : UTC 2017-01-18 18:44:41
Writing application : mkvmerge v6.9.1 ('Blue Panther') 32bit built on Apr 18 2014 18:15:44
Writing library : libebml v1.3.0 + libmatroska v1.4.1
Video
ID : 1
Format : AVC
Format/Info : Advanced Video Codec
Format profile : High@L4.1
Format settings, CABAC : Yes
Format settings, ReFrames : 14 frames
Codec ID : V_MPEG4/ISO/AVC
Duration : 1h 15mn
Bit rate : 1 711 Kbps
Width : 716 pixels
Height : 572 pixels
Display aspect ratio : 4:3
Original display aspect ratio : 4:3
Frame rate mode : Constant
Frame rate : 25.000 fps
Color space : YUV
Chroma subsampling : 4:2:0
Bit depth : 8 bits
Scan type : Progressive
Bits/(Pixel*Frame) : 0.167
Stream size : 929 MiB (87%)
Writing library : x264 core 148 r2744 b97ae06
Encoding settings : cabac=1 / ref=14 / deblock=1:-1:-2 / analyse=0x3:0x113 / me=umh / subme=10 / psy=1 / psy_rd=1.04:0.08 / mixed_ref=1 / me_range=32 / chroma_me=1 / trellis=2 / 8x8dct=1 / cqm=0 / deadzone=21,11 / fast_pskip=1 / chroma_qp_offset=-3 / threads=6 / lookahead_threads=1 / sliced_threads=0 / nr=0 / decimate=1 / interlaced=0 / bluray_compat=0 / constrained_intra=0 / bframes=9 / b_pyramid=2 / b_adapt=2 / b_bias=0 / direct=1 / weightb=1 / open_gop=0 / weightp=2 / keyint=250 / keyint_min=25 / scenecut=40 / intra_refresh=0 / rc_lookahead=50 / rc=crf / mbtree=1 / crf=17.5 / qcomp=0.60 / qpmin=0 / qpmax=69 / qpstep=4 / ip_ratio=1.40 / aq=1:1.00
Default : Yes
Forced : No
Audio
ID : 2
Format : AC-3
Format/Info : Audio Coding 3
Mode extension : CM (complete main)
Format settings, Endianness : Big
Codec ID : A_AC3
Duration : 1h 15mn
Bit rate mode : Constant
Bit rate : 224 Kbps
Channel(s) : 1 channel
Channel positions : Front: C
Sampling rate : 48.0 KHz
Compression mode : Lossy
Stream size : 122 MiB (11%)
Language : Russian
Default : Yes
Forced : No
Menu
00:00:00.000 : en:Вступление
00:10:20.560 : en:Анекдот
00:12:21.560 : en:"О здоровье"
00:22:53.280 : en:"На работе"
00:36:42.240 : en:Песня о манекенах
00:41:44.160 : en:"Знакомый таракан"
00:49:23.040 : en:"Гости"
01:01:24.040 : en:Слесарь-алкоголик
01:07:25.000 : en:"В греческом зале"

2 серияx264 log

x264.exe: --crf 17.5 --preset slower --level 4.1 --ref 14 --deblock -1:-2 --merange 32 --bframes 9 --direct spatial --psy-rd 1.02:0.05 --no-8x8dct --subme 10 --rc-lookahead 50 --vbv-bufsize 0 --vbv-maxrate 0 --partitions p8x8,b8x8,i4x4,i8x8 --sar 16:15 --output "F:\Temp\1023.264" "F:\Temp\1023.avs"
avs [info]: 716x572p 16:15 @ 25/1 fps (cfr)
x264 [info]: using SAR=16/15
x264 [info]: using cpu capabilities: MMX2 SSE2Fast SSSE3 SSE4.2 AVX
x264 [info]: profile Main, level 4.1
x264 [info]: frame I:542 Avg QP:15.37 size: 66705
x264 [info]: frame P:21435 Avg QP:18.67 size: 23713
x264 [info]: frame B:91019 Avg QP:22.65 size: 5661
x264 [info]: consecutive B-frames: 0.7% 0.6% 3.9% 14.1% 10.6% 65.3% 3.5% 0.6% 0.6% 0.2%
x264 [info]: mb I I16..4: 18.4% 0.0% 81.6%
x264 [info]: mb P I16..4: 2.0% 0.0% 6.6% P16..4: 41.9% 32.6% 14.9% 0.0% 0.0% skip: 1.9%
x264 [info]: mb B I16..4: 0.1% 0.0% 0.4% B16..8: 44.5% 10.1% 2.2% direct: 7.8% skip:34.9% L0:40.3% L1:42.9% BI:16.9%
x264 [info]: coded y,uvDC,uvAC intra: 91.5% 78.3% 46.4% inter: 27.1% 21.3% 2.4%
x264 [info]: i16 v,h,dc,p: 27% 16% 12% 44%
x264 [info]: i4 v,h,dc,ddl,ddr,vr,hd,vl,hu: 10% 7% 3% 9% 15% 14% 14% 13% 14%
x264 [info]: i8c dc,h,v,p: 34% 26% 24% 15%
x264 [info]: Weighted P-Frames: Y:27.8% UV:13.4%
x264 [info]: ref P L0: 37.7% 12.8% 15.2% 6.9% 5.8% 4.5% 3.9% 2.2% 2.1% 1.8% 1.8% 1.6% 1.6% 1.6% 0.4% 0.0%
x264 [info]: ref B L0: 80.8% 8.4% 3.1% 1.8% 1.3% 1.2% 0.9% 0.6% 0.5% 0.5% 0.4% 0.3% 0.2%
x264 [info]: ref B L1: 96.5% 3.5%
x264 [info]: kb/s:1875.58
encoded 112996 frames, 2.38 fps, 1875.58 kb/s
General
Unique ID : 178153824092457860025788863406217869689 (0x86072DAF1317A1E18903ED89A32FB979)
Complete name : D:\Видео\Фильмы\Люди и манекены (1974)\02-Люди и манекены.mkv
Format : Matroska
Format version : Version 4 / Version 2
File size : 1.11 GiB
Duration : 1h 15mn
Overall bit rate : 2 101 Kbps
Encoded date : UTC 2017-01-18 18:49:27
Writing application : mkvmerge v6.9.1 ('Blue Panther') 32bit built on Apr 18 2014 18:15:44
Writing library : libebml v1.3.0 + libmatroska v1.4.1
Video
ID : 1
Format : AVC
Format/Info : Advanced Video Codec
Format profile : Main@L4.1
Format settings, CABAC : Yes
Format settings, ReFrames : 14 frames
Codec ID : V_MPEG4/ISO/AVC
Duration : 1h 15mn
Bit rate : 1 836 Kbps
Width : 716 pixels
Height : 572 pixels
Display aspect ratio : 4:3
Original display aspect ratio : 4:3
Frame rate mode : Constant
Frame rate : 25.000 fps
Color space : YUV
Chroma subsampling : 4:2:0
Bit depth : 8 bits
Scan type : Progressive
Bits/(Pixel*Frame) : 0.179
Stream size : 989 MiB (87%)
Writing library : x264 core 148 r2744 b97ae06
Encoding settings : cabac=1 / ref=14 / deblock=1:-1:-2 / analyse=0x1:0x111 / me=umh / subme=10 / psy=1 / psy_rd=1.02:0.05 / mixed_ref=1 / me_range=32 / chroma_me=1 / trellis=2 / 8x8dct=0 / cqm=0 / deadzone=21,11 / fast_pskip=1 / chroma_qp_offset=-3 / threads=6 / lookahead_threads=1 / sliced_threads=0 / nr=0 / decimate=1 / interlaced=0 / bluray_compat=0 / constrained_intra=0 / bframes=9 / b_pyramid=2 / b_adapt=2 / b_bias=0 / direct=1 / weightb=1 / open_gop=0 / weightp=2 / keyint=250 / keyint_min=25 / scenecut=40 / intra_refresh=0 / rc_lookahead=50 / rc=crf / mbtree=1 / crf=17.5 / qcomp=0.60 / qpmin=0 / qpmax=69 / qpstep=4 / ip_ratio=1.40 / aq=1:1.00
Default : Yes
Forced : No
Audio
ID : 2
Format : AC-3
Format/Info : Audio Coding 3
Mode extension : CM (complete main)
Format settings, Endianness : Big
Codec ID : A_AC3
Duration : 1h 15mn
Bit rate mode : Constant
Bit rate : 224 Kbps
Channel(s) : 2 channels
Channel positions : Front: L R
Sampling rate : 48.0 KHz
Compression mode : Lossy
Stream size : 121 MiB (11%)
Language : Russian
Default : Yes
Forced : No
Menu
00:00:00.000 : en:Песня про дорогу
00:05:09.960 : en:"Я как все"
00:08:30.600 : en:"Товарищеский суд"
00:19:55.080 : en:"Сфера обслуживания"
00:27:41.160 : en:"Пожар"
00:37:49.800 : en:"Заявление о переселении"
00:50:52.200 : en:"Дефицит"
00:55:48.360 : en:"Насосы"

3 серияx264 log

x264.exe: --crf 17.5 --preset slower --level 4.1 --ref 15 --deblock -1:-2 --merange 32 --bframes 9 --direct spatial --psy-rd 1.02:0.05 --no-8x8dct --subme 10 --rc-lookahead 50 --vbv-bufsize 0 --vbv-maxrate 0 --partitions p8x8,b8x8,i4x4,i8x8 --sar 16:15 --output "F:\Temp\1026.264" "F:\Temp\1026.avs"
avs [info]: 716x572p 16:15 @ 25/1 fps (cfr)
x264 [info]: using SAR=16/15
x264 [info]: using cpu capabilities: MMX2 SSE2Fast SSSE3 SSE4.2 AVX
x264 [info]: profile Main, level 4.1
x264 [info]: frame I:447 Avg QP:14.58 size: 55799
x264 [info]: frame P:19077 Avg QP:18.02 size: 19567
x264 [info]: frame B:77248 Avg QP:21.55 size: 5160
x264 [info]: consecutive B-frames: 0.7% 0.8% 5.0% 19.4% 12.8% 55.6% 4.2% 0.9% 0.6% 0.2%
x264 [info]: mb I I16..4: 25.4% 0.0% 74.6%
x264 [info]: mb P I16..4: 2.0% 0.0% 6.0% P16..4: 45.0% 28.5% 13.6% 0.0% 0.0% skip: 4.8%
x264 [info]: mb B I16..4: 0.1% 0.0% 0.4% B16..8: 42.3% 9.3% 1.9% direct: 7.3% skip:38.7% L0:42.7% L1:42.9% BI:14.3%
x264 [info]: coded y,uvDC,uvAC intra: 87.4% 73.1% 41.2% inter: 23.2% 19.1% 1.6%
x264 [info]: i16 v,h,dc,p: 28% 18% 14% 39%
x264 [info]: i4 v,h,dc,ddl,ddr,vr,hd,vl,hu: 9% 8% 4% 9% 15% 14% 14% 12% 15%
x264 [info]: i8c dc,h,v,p: 36% 28% 21% 15%
x264 [info]: Weighted P-Frames: Y:30.6% UV:16.7%
x264 [info]: ref P L0: 36.8% 10.4% 14.0% 7.2% 6.0% 5.0% 4.2% 2.5% 2.4% 2.1% 1.9% 1.8% 1.7% 1.7% 1.7% 0.4%
x264 [info]: ref B L0: 76.0% 9.0% 3.9% 2.3% 1.8% 1.6% 1.3% 0.8% 0.7% 0.7% 0.6% 0.6% 0.4% 0.3%
x264 [info]: ref B L1: 95.7% 4.3%
x264 [info]: kb/s:1646.77
encoded 96772 frames, 11.66 fps, 1646.77 kb/s
General
Unique ID : 212595507225854864956181884321357833526 (0x9FF067C46AF03F9B8614C831D02F2536)
Complete name : D:\Видео\Фильмы\Люди и манекены (1974)\03-Люди и манекены.mkv
Format : Matroska
Format version : Version 4 / Version 2
File size : 864 MiB
Duration : 1h 4mn
Overall bit rate : 1 873 Kbps
Encoded date : UTC 2017-01-18 19:07:11
Writing application : mkvmerge v6.9.1 ('Blue Panther') 32bit built on Apr 18 2014 18:15:44
Writing library : libebml v1.3.0 + libmatroska v1.4.1
Video
ID : 1
Format : AVC
Format/Info : Advanced Video Codec
Format profile : Main@L4.1
Format settings, CABAC : Yes
Format settings, ReFrames : 15 frames
Codec ID : V_MPEG4/ISO/AVC
Duration : 1h 4mn
Bit rate : 1 611 Kbps
Width : 716 pixels
Height : 572 pixels
Display aspect ratio : 4:3
Original display aspect ratio : 4:3
Frame rate mode : Constant
Frame rate : 25.000 fps
Color space : YUV
Chroma subsampling : 4:2:0
Bit depth : 8 bits
Scan type : Progressive
Bits/(Pixel*Frame) : 0.157
Stream size : 744 MiB (86%)
Writing library : x264 core 148 r2744 b97ae06
Encoding settings : cabac=1 / ref=15 / deblock=1:-1:-2 / analyse=0x1:0x111 / me=umh / subme=10 / psy=1 / psy_rd=1.02:0.05 / mixed_ref=1 / me_range=32 / chroma_me=1 / trellis=2 / 8x8dct=0 / cqm=0 / deadzone=21,11 / fast_pskip=1 / chroma_qp_offset=-3 / threads=6 / lookahead_threads=1 / sliced_threads=0 / nr=0 / decimate=1 / interlaced=0 / bluray_compat=0 / constrained_intra=0 / bframes=9 / b_pyramid=2 / b_adapt=2 / b_bias=0 / direct=1 / weightb=1 / open_gop=0 / weightp=2 / keyint=250 / keyint_min=25 / scenecut=40 / intra_refresh=0 / rc_lookahead=50 / rc=crf / mbtree=1 / crf=17.5 / qcomp=0.60 / qpmin=0 / qpmax=69 / qpstep=4 / ip_ratio=1.40 / aq=1:1.00
Default : Yes
Forced : No
Audio
ID : 2
Format : AC-3
Format/Info : Audio Coding 3
Mode extension : CM (complete main)
Format settings, Endianness : Big
Codec ID : A_AC3
Duration : 1h 4mn
Bit rate mode : Constant
Bit rate : 224 Kbps
Channel(s) : 1 channel
Channel positions : Front: C
Sampling rate : 48.0 KHz
Compression mode : Lossy
Stream size : 103 MiB (12%)
Language : Russian
Default : Yes
Forced : No
Menu
00:00:00.000 : en:Вступление
00:02:19.680 : en:"Смеяться, право, не грешно"
00:08:03.840 : en:"Сила слова"
00:13:30.240 : en:"Муж"
00:25:28.800 : en:Разговор с пассажиром
00:31:02.880 : en:"Ласточкина"
00:39:22.560 : en:"Холостяк"
00:42:35.520 : en:Песня о мужчинах и женщинах
00:46:11.520 : en:У роддома
00:50:46.080 : en:"Родительское собрание"

4 серияx264 log

x264.exe: --crf 17.0 --preset slower --level 4.1 --ref 14 --deblock -1:-2 --merange 32 --bframes 9 --direct spatial --psy-rd 1.02:0.05 --no-8x8dct --subme 10 --rc-lookahead 50 --vbv-bufsize 0 --vbv-maxrate 0 --partitions p8x8,b8x8,i4x4,i8x8 --sar 16:15 --output "F:\Temp\1030.264" "F:\Temp\1030.avs"
avs [info]: 716x572p 16:15 @ 25/1 fps (cfr)
x264 [info]: using SAR=16/15
x264 [info]: using cpu capabilities: MMX2 SSE2Fast SSSE3 SSE4.2 AVX
x264 [info]: profile Main, level 4.1
x264 [info]: frame I:530 Avg QP:13.78 size: 67642
x264 [info]: frame P:22295 Avg QP:16.98 size: 23850
x264 [info]: frame B:95130 Avg QP:21.50 size: 5351
x264 [info]: consecutive B-frames: 0.6% 0.7% 5.5% 10.3% 7.4% 71.8% 2.6% 0.5% 0.4% 0.1%
x264 [info]: mb I I16..4: 21.3% 0.0% 78.7%
x264 [info]: mb P I16..4: 2.0% 0.0% 6.1% P16..4: 40.0% 32.1% 16.6% 0.0% 0.0% skip: 3.2%
x264 [info]: mb B I16..4: 0.1% 0.0% 0.4% B16..8: 42.3% 10.1% 2.2% direct: 7.3% skip:37.6% L0:40.6% L1:41.4% BI:17.9%
x264 [info]: coded y,uvDC,uvAC intra: 87.0% 77.5% 49.1% inter: 23.5% 18.4% 3.1%
x264 [info]: i16 v,h,dc,p: 35% 15% 16% 33%
x264 [info]: i4 v,h,dc,ddl,ddr,vr,hd,vl,hu: 11% 8% 5% 9% 13% 14% 12% 13% 14%
x264 [info]: i8c dc,h,v,p: 38% 24% 26% 12%
x264 [info]: Weighted P-Frames: Y:16.6% UV:7.2%
x264 [info]: ref P L0: 36.6% 10.8% 16.5% 6.7% 6.2% 4.4% 4.4% 2.3% 2.5% 2.0% 2.1% 1.7% 1.9% 1.7% 0.3% 0.0%
x264 [info]: ref B L0: 77.2% 10.1% 3.8% 2.1% 1.5% 1.3% 1.0% 0.7% 0.6% 0.6% 0.5% 0.4% 0.2%
x264 [info]: ref B L1: 95.3% 4.7%
x264 [info]: kb/s:1825.45
encoded 117955 frames, 8.71 fps, 1825.45 kb/s
General
Unique ID : 243675477442229554243110062403950286193 (0xB752309B719EEB8780BB8EA8D9C11571)
Complete name : D:\Видео\Фильмы\Люди и манекены (1974)\04-Люди и манекены.mkv
Format : Matroska
Format version : Version 4 / Version 2
File size : 1.13 GiB
Duration : 1h 18mn
Overall bit rate : 2 051 Kbps
Encoded date : UTC 2017-01-18 19:08:11
Writing application : mkvmerge v6.9.1 ('Blue Panther') 32bit built on Apr 18 2014 18:15:44
Writing library : libebml v1.3.0 + libmatroska v1.4.1
Video
ID : 1
Format : AVC
Format/Info : Advanced Video Codec
Format profile : Main@L4.1
Format settings, CABAC : Yes
Format settings, ReFrames : 14 frames
Codec ID : V_MPEG4/ISO/AVC
Duration : 1h 18mn
Bit rate : 1 786 Kbps
Width : 716 pixels
Height : 572 pixels
Display aspect ratio : 4:3
Original display aspect ratio : 4:3
Frame rate mode : Constant
Frame rate : 25.000 fps
Color space : YUV
Chroma subsampling : 4:2:0
Bit depth : 8 bits
Scan type : Progressive
Bits/(Pixel*Frame) : 0.174
Stream size : 1 005 MiB (87%)
Writing library : x264 core 148 r2744 b97ae06
Encoding settings : cabac=1 / ref=14 / deblock=1:-1:-2 / analyse=0x1:0x111 / me=umh / subme=10 / psy=1 / psy_rd=1.02:0.05 / mixed_ref=1 / me_range=32 / chroma_me=1 / trellis=2 / 8x8dct=0 / cqm=0 / deadzone=21,11 / fast_pskip=1 / chroma_qp_offset=-3 / threads=6 / lookahead_threads=1 / sliced_threads=0 / nr=0 / decimate=1 / interlaced=0 / bluray_compat=0 / constrained_intra=0 / bframes=9 / b_pyramid=2 / b_adapt=2 / b_bias=0 / direct=1 / weightb=1 / open_gop=0 / weightp=2 / keyint=250 / keyint_min=25 / scenecut=40 / intra_refresh=0 / rc_lookahead=50 / rc=crf / mbtree=1 / crf=17.0 / qcomp=0.60 / qpmin=0 / qpmax=69 / qpstep=4 / ip_ratio=1.40 / aq=1:1.00
Default : Yes
Forced : No
Audio
ID : 2
Format : AC-3
Format/Info : Audio Coding 3
Mode extension : CM (complete main)
Format settings, Endianness : Big
Codec ID : A_AC3
Duration : 1h 18mn
Bit rate mode : Constant
Bit rate : 224 Kbps
Channel(s) : 1 channel
Channel positions : Front: C
Sampling rate : 48.0 KHz
Compression mode : Lossy
Stream size : 126 MiB (11%)
Language : Russian
Default : Yes
Forced : No
Menu
00:00:00.000 : en:Вступление
00:02:17.000 : en:Продолжение песни про дорогу
00:06:39.120 : en:"Чужие люди"
00:27:13.680 : en:"Счастливая старость"
00:36:13.680 : en:"Многоберидзе"
00:42:26.640 : en:"Незаменимый"
00:50:01.200 : en:"Рационализатор"
00:55:13.200 : en:"Специалист"
01:05:33.360 : en:"Париж"
01:12:33.360 : en:Окончание песни про дорогу

Источник: Torrentc.org с Источник: Torrentc.orgом

[url=viewtopic.php?t=1005507]http://Torrentc.org/forum/viewtopic.php?t=1005507[/url]

Источник: Torrentc.org с DVD rip 4.37

[url=viewtopic.php?t=3346508]http://Torrentc.org/forum/viewtopic.php?t=3346508[/url]

Скриншоты



[torrentc.info]_torrent-5343876.torrent
Торрент: Зарегистрирован ·  [ 2017-02-14 20:24 ] ·  36a354037152326ae2bc803f7b2620bad35f9c89

21 KB

Статус: проверено
Скачан: 1 раз
Размер: 4.12 GB
Оценка: 
(Голосов: 0)
Сказали спасибо: 1  Спасибо   (список)
Похожие темы
[Профиль]    [ЛС]
Показать сообщения:    
Ответить на тему

Текущее время: Сегодня 16:18

Часовой пояс: GMT + 7



Вы не можете начинать темы
Вы не можете отвечать на сообщения
Вы не можете редактировать свои сообщения
Вы не можете удалять свои сообщения
Вы не можете голосовать в опросах
Вы не можете прикреплять файлы к сообщениям
Вы можете скачивать файлы