Освобождение. Фильм третий. Направление главного удара (Юрий Озеров) [1969, военный, BDRip-AVC]

Ответить на тему
Статистика раздачи [Обновить пиров]
Размер:  2.91 GB   |    Зарегистрирован:  1 год 9 месяцев   |    Скачан:  0 раз

Полного источника не было: Никогда

 
   
 
 
 
Автор Сообщение

torrentc.info

Создавать темы 14-Фев-2017 20:25

[Цитировать]

Освобождение. Фильм третий. Направление главного удара- Жанр: военный
Год выхода: 1969
Продолжительность: 02:10:38
Режиссёр: Юрий Озеров
В ролях: Михаил Ульянов, Василий Шукшин, Николай Олялин, Лариса Голубкина, Михаил Ножкин, Владислав Стржельчик, Сергей Никоненко, Всеволод Санаев, Борис Зайденберг, Валерий Носик, Юрий Каморный, Бухути Закариадзе, Иван Переверзев, Анатолий Ромашин, Владимир Заманский, Николай Рыбников, Барбара Брыльска, Лев Прыгунов и др.
Описание: Фильм третий — «Направление главного удара» посвящен операции «Багратион», в результате которой была полностью освобождена от фашистских войск Белоруссия, и войска Советской армии вышли к государственной границе…
Сэмпл: http://sendfile.su/1299337
[img]https://rating.kinopoisk.ru/46318.gif[/img]
Качество видео: BDRip-AVC ([url=viewtopic.php?t=5320993]Освобождение BDRemux 1080p] [Remastered Edition] [GER Transfer][/url])
Формат файла: MKV
Видео: x264, 960x408 (2.35:1) 24 fps, ~2960 kbps, 0,315 bit/pixel
Аудио: 48 kHz, AC3 Dolby Digital, 2/0 (L,R) ch, ~224 kbps
Освобождение. Фильм первый. Огненная дуга
Освобождение. Фильм второй. Прорыв
Освобождение. Фильм четвертый. Битва за Берлин
Освобождение. Фильм пятый. Последний штурм

MediaInfo

General
Unique ID : 239476604092813292502861709779260159642 (0xB429842AF14C31928254E23965E0369A)
Format : Matroska
Format version : Version 4 / Version 2
File size : 2.91 GiB
Duration : 2h 10mn
Overall bit rate : 3 186 Kbps
Encoded date : UTC 2017-01-12 07:46:32
Writing application : mkvmerge v9.7.1 ('Pandemonium') 64bit
Writing library : libebml v1.3.4 + libmatroska v1.4.5
Video #1
ID : 1
Format : AVC
Format/Info : Advanced Video Codec
Format profile : High@L4.1
Format settings, CABAC : Yes
Format settings, ReFrames : 13 frames
Codec ID : V_MPEG4/ISO/AVC
Duration : 2h 10mn
Bit rate : 2 960 Kbps
Width : 960 pixels
Height : 408 pixels
Display aspect ratio : 2.35:1
Frame rate mode : Constant
Frame rate : 24.000 fps
Color space : YUV
Chroma subsampling : 4:2:0
Bit depth : 8 bits
Scan type : Progressive
Bits/(Pixel*Frame) : 0.315
Stream size : 2.70 GiB (93%)
Writing library : x264 core 146 r2538 121396c
Encoding settings : cabac=1 / ref=13 / deblock=1:-3:-2 / analyse=0x3:0x113 / me=umh / subme=10 / psy=1 / psy_rd=1.00:0.00 / mixed_ref=1 / me_range=32 / chroma_me=1 / trellis=2 / 8x8dct=1 / cqm=0 / deadzone=21,11 / fast_pskip=1 / chroma_qp_offset=-2 / threads=6 / lookahead_threads=1 / sliced_threads=0 / nr=0 / decimate=1 / interlaced=0 / bluray_compat=0 / constrained_intra=0 / bframes=12 / b_pyramid=2 / b_adapt=2 / b_bias=0 / direct=1 / weightb=1 / open_gop=0 / weightp=2 / keyint=250 / keyint_min=23 / scenecut=40 / intra_refresh=0 / rc_lookahead=50 / rc=2pass / mbtree=1 / bitrate=2960 / ratetol=1.0 / qcomp=0.60 / qpmin=0 / qpmax=69 / qpstep=4 / cplxblur=20.0 / qblur=0.5 / ip_ratio=1.40 / aq=3:1.00
Language : English
Default : Yes
Forced : No
Audio #2
ID : 2
Format : AC-3
Format/Info : Audio Coding 3
Mode extension : CM (complete main)
Format settings, Endianness : Big
Codec ID : A_AC3
Duration : 2h 10mn
Bit rate mode : Constant
Bit rate : 224 Kbps
Channel(s) : 2 channels
Channel positions : Front: L R
Sampling rate : 48.0 KHz
Frame rate : 31.250 fps (1536 spf)
Compression mode : Lossy
Stream size : 209 MiB (7%)
Language : Russian
Default : Yes
Forced : No

лог

raw [info]: 960x408p 1:1 @ 10000000/416667 fps (cfr)
x264 [info]: using SAR=1/1
x264 [info]: using cpu capabilities: MMX2 SSE2Fast SSSE3 SSE4.2 AVX XOP FMA4 FMA3 LZCNT BMI1
x264 [info]: profile High, level 4.1
x264 [info]: frame I:884 Avg QP:16.24 size: 62217
x264 [info]: frame P:35877 Avg QP:19.01 size: 29620
x264 [info]: frame B:151368 Avg QP:22.14 size: 11776
x264 [info]: consecutive B-frames: 0.8% 1.4% 4.9% 16.0% 16.4% 38.6% 8.9% 5.1% 3.7% 1.2% 1.1% 1.4% 0.4%
x264 [info]: mb I I16..4: 2.2% 82.8% 15.1%
x264 [info]: mb P I16..4: 0.8% 16.0% 1.1% P16..4: 37.4% 28.9% 14.3% 0.0% 0.0% skip: 1.5%
x264 [info]: mb B I16..4: 0.1% 3.5% 0.1% B16..8: 40.0% 12.7% 3.9% direct:11.8% skip:27.9% L0:46.5% L1:38.5% BI:15.0%
x264 [info]: 8x8 transform intra:91.7% inter:67.0%
x264 [info]: coded y,uvDC,uvAC intra: 91.7% 38.8% 15.2% inter: 42.9% 21.8% 0.7%
x264 [info]: i16 v,h,dc,p: 37% 18% 15% 30%
x264 [info]: i8 v,h,dc,ddl,ddr,vr,hd,vl,hu: 10% 9% 13% 9% 13% 11% 13% 10% 13%
x264 [info]: i4 v,h,dc,ddl,ddr,vr,hd,vl,hu: 14% 9% 6% 8% 14% 12% 14% 10% 13%
x264 [info]: i8c dc,h,v,p: 68% 17% 9% 6%
x264 [info]: Weighted P-Frames: Y:46.8% UV:21.3%
x264 [info]: ref P L0: 35.8% 12.8% 13.5% 8.4% 6.2% 5.2% 3.9% 2.8% 2.4% 2.3% 2.0% 2.0% 1.7% 1.1% 0.0%
x264 [info]: ref B L0: 64.4% 11.9% 6.5% 4.2% 3.0% 2.6% 2.1% 1.5% 1.3% 1.3% 0.7% 0.4%
x264 [info]: ref B L1: 92.8% 7.2%
x264 [info]: kb/s:2959.92
x264 [total]: encoded 188129 frames, 8.21 fps, 2959.92 kb/s

Скриншоты




[torrentc.info]_torrent-5341955.torrent
Торрент: Зарегистрирован ·  [ 2017-02-14 20:24 ] ·  fee61a5a6885d1c94c4903fb3ad258a248d26de4

15 KB

Статус: проверено
Скачан: 0 раз
Размер: 2.91 GB
Оценка: 
(Голосов: 0)
Сказали спасибо: 0  Спасибо
Похожие темы
[Профиль]    [ЛС]
Показать сообщения:    
Ответить на тему

Текущее время: Сегодня 16:20

Часовой пояс: GMT + 7



Вы не можете начинать темы
Вы не можете отвечать на сообщения
Вы не можете редактировать свои сообщения
Вы не можете удалять свои сообщения
Вы не можете голосовать в опросах
Вы не можете прикреплять файлы к сообщениям
Вы можете скачивать файлы