Шаг навстречу (Наум Бирман) [1975, комедия, мелодрама, DVDRip]

Ответить на тему
Статистика раздачи [Обновить пиров]
Размер:  1.09 GB   |    Зарегистрирован:  1 год 9 месяцев   |    Скачан:  2 раза

Полного источника не было: 1 день 8 часов

 
   
 
 
 
Автор Сообщение

torrentc.info

Создавать темы 14-Фев-2017 20:25

[Цитировать]

Шаг навстречу
Жанр: комедия, мелодрама
Год выхода: 1975
Продолжительность: 01:13:14
Режиссёр: Наум Бирман
В ролях: Людмила Гурченко, Николай Волков-мл., Андрей Попов, Елена Цыплакова, Георгий Вицин, Людмила Иванова, Вера Титова, Евгений Леонов, Елена Соловей, Валентина Телегина, Лев Дуров, Владимир Басов, Валентина Титова, Елена Драпеко, Борис Щербаков, Анатолий Рудаков, Светлана Вадас, Станислав Соколов, Андрей Миронов, Екатерина Васильева, Павел Панков
Описание: Пять лирических новелл ("Дочь капитана", "Отец Серафим", "Мясо по-аргентински", "Свадебный марш", "Всего за 30 копеек"), связанных историей двух влюблённых - Валентины Степановны и Игоря Анатольевича, часто встречающихся в городском транспорте и не подозревающих о том, что живя по соседству, они доставляют друг другу массу неприятностей.

Качество видео: DVDRip [url=viewtopic.php?t=3020071]Источник: Torrentc.org[/url]
Формат файла: AVI
Видео: XviD 73, 688x528 (1.30:1), 25 fps, 1930 kbps avg
Аудио: AC3, 48 kHz, stereo, 192.00 kbps avg (оригинал)

MediaInfo

General
Complete name : D:\Видео\Фильмы\Шаг навстречу (1975).avi
Format : AVI
Format/Info : Audio Video Interleave
File size : 1.09 GiB
Duration : 1h 13mn
Overall bit rate : 2 132 Kbps
Writing application : VirtualDubMod 1.5.10.3 | www.virtualdub-fr.org || (build 2550/release)
Writing library : VirtualDubMod build 2550/release
Video
ID : 0
Format : MPEG-4 Visual
Format profile : Advanced Simple@L5
Format settings, BVOP : 1
Format settings, QPel : No
Format settings, GMC : No warppoints
Format settings, Matrix : Default (MPEG)
Codec ID : XVID
Codec ID/Hint : XviD
Duration : 1h 13mn
Bit rate : 1 930 Kbps
Width : 688 pixels
Height : 528 pixels
Display aspect ratio : 4:3
Frame rate : 25.000 fps
Color space : YUV
Chroma subsampling : 4:2:0
Bit depth : 8 bits
Scan type : Progressive
Compression mode : Lossy
Bits/(Pixel*Frame) : 0.213
Stream size : 1 011 MiB (91%)
Writing library : XviD 73
Audio
ID : 1
Format : AC-3
Format/Info : Audio Coding 3
Mode extension : CM (complete main)
Format settings, Endianness : Big
Codec ID : 2000
Duration : 1h 13mn
Bit rate mode : Constant
Bit rate : 192 Kbps
Channel(s) : 2 channels
Channel positions : Front: L R
Sampling rate : 48.0 KHz
Compression mode : Lossy
Stream size : 101 MiB (9%)
Alignment : Split accross interleaves
Interleave, duration : 40 ms (1.00 video frame)
Interleave, preload duration : 500 ms

Скриншоты



[torrentc.info]_torrent-5340888.torrent
Торрент: Зарегистрирован ·  [ 2017-02-14 20:24 ] ·  6a5fdd5d80107353ca680aa3f0a31ec5906823f4

11 KB

Статус: проверено
Скачан: 2 раз
Размер: 1.09 GB
Оценка: 
(Голосов: 0)
Сказали спасибо: 1  Спасибо   (список)
Похожие темы
[Профиль]    [ЛС]
Показать сообщения:    
Ответить на тему

Текущее время: Сегодня 10:13

Часовой пояс: GMT + 7



Вы не можете начинать темы
Вы не можете отвечать на сообщения
Вы не можете редактировать свои сообщения
Вы не можете удалять свои сообщения
Вы не можете голосовать в опросах
Вы не можете прикреплять файлы к сообщениям
Вы можете скачивать файлы