Ватерлоо / Waterloo (Сергей Бондарчук) [1970, Италия, СССР, Исторический, DVDRip] AVO (Живов) + AVO (Иванов)

Ответить на тему
Статистика раздачи [Обновить пиров]
Размер:  1.46 GB   |    Зарегистрирован:  1 год 9 месяцев   |    Скачан:  0 раз

Полного источника не было: Никогда

 
   
 
 
 
Автор Сообщение

torrentc.info

Создавать темы 14-Фев-2017 20:25

[Цитировать]

Ватерлоо / Waterloo
Страна: Италия, СССР
Жанр: Исторический
Год выхода: 1970
Продолжительность: 02:08:07
Перевод: Авторский (одноголосый закадровый) Юрий Живов
Перевод 2: Авторский (одноголосый закадровый) Михаил Иванов
Cубтитры: нет
Режиссер: Сергей Бондарчук
В ролях: Род Стайгер, Олег Видов, Василий Ливанов, Кристофер Пламмер, Сергей Закариадзе, Дэниэл О`Херлихи, Орсон Уэллс, Джек Хокинс, Ирина Скобцева-Бондарчук, Владимир Дружников, Вирджиния Маккенна, Майкл Уилдинг
Описание: Масштабный, красочный, исторический фильм о грандиозном сражении при Ватерлоо и событиях предшествующих ему. Отличается великолепной игрой актеров, в особенности исполняющих роли Наполеона и Веллингтона, блестящими батальными сценами, сделанными с присущим Сергею Бондарчуку размахом.
Картина посвящена событиям 1814-15 годов, последовавшим за взятием Парижа русскими войсками. Начинается фильм со сцены первого отречения Наполеона и его отъезда на остров Эльба. Вскоре Наполеон с небольшим отрядом тайно покидает остров Эльба и высаживается на юге Франции. После триумфального похода на Париж он снова становится во главе возрожденной армии и пытается оказать сопротивление коалиции Англии, России и Пруссии. Наполеон одерживает частичную победу над войсками Блюхера, но в битве при Ватерлоо терпит поражение, которое приводит к окончательному падению его империи.
Доп. информация: Дорожка с М. Ивановым синхронизирована и наложена ale_x2008 при помощи Sony Vegas и VirtualDubMod.
За оцифрованную с VHS дорожку благодарим - alenavova

Живов из сети.
Релиз группы:
Сэмпл: https://yadi.sk/i/IeFroaij38ZgFh
Качество видео: DVDRip
Формат файла: AVI
Видео: 704x304 (2.32:1), 25 fps, XviD build 65 ~1233 kbps avg, 0.23 bit/pixel
Аудио: 48 kHz, AC3 Dolby Digital, 2/0 (L,R) ch, ~192 kbps Живов
Аудио 2: AC3 Dolby Digital, 48000Hz, 2/0 (L,R) ch (mono), 192.00 kbps avg Иванов

MediaInfo

Ватерлоо - Waterloo [by ale_x2008].avi
Format : AVI
Format/Info : Audio Video Interleave
File size : 1.46 GiB
Duration : 2 h 8 min
Overall bit rate : 1 633 kb/s
Movie name : Ватерлоо - Waterloo [by ale_x2008]
Director : by ale_x2008
Writing application : VirtualDubMod 1.5.10.2 (build 2540/release)
Copyright : Edich2
Comment : Torrentc.org
Video
ID : 0
Format : MPEG-4 Visual
Format profile : Advanced Simple@L5
Format settings, BVOP : 1
Format settings, QPel : No
Format settings, GMC : No warppoints
Format settings, Matrix : Custom
Codec ID : XVID
Codec ID/Hint : XviD
Duration : 2 h 8 min
Bit rate : 1 234 kb/s
Width : 704 pixels
Height : 304 pixels
Display aspect ratio : 2.35:1
Frame rate : 25.000 FPS
Color space : YUV
Chroma subsampling : 4:2:0
Bit depth : 8 bits
Scan type : Progressive
Compression mode : Lossy
Bits/(Pixel*Frame) : 0.231
Stream size : 1.10 GiB (76%)
Writing library : XviD 65
Audio #1
ID : 1
Format : AC-3
Format/Info : Audio Coding 3
Mode extension : CM (complete main)
Format settings, Endianness : Big
Codec ID : 2000
Duration : 2 h 8 min
Bit rate mode : Constant
Bit rate : 192 kb/s
Channel(s) : 2 channels
Channel positions : Front: L R
Sampling rate : 48.0 kHz
Frame rate : 31.250 FPS (1536 spf)
Compression mode : Lossy
Stream size : 176 MiB (12%)
Alignment : Split accross interleaves
Interleave, duration : 40 ms (1.00 video frame)
Interleave, preload duratio : 500 ms
Audio #2
ID : 2
Format : AC-3
Format/Info : Audio Coding 3
Mode extension : CM (complete main)
Format settings, Endianness : Big
Codec ID : 2000
Duration : 2 h 8 min
Bit rate mode : Constant
Bit rate : 192 kb/s
Channel(s) : 2 channels
Channel positions : Front: L R
Sampling rate : 48.0 kHz
Frame rate : 31.250 FPS (1536 spf)
Compression mode : Lossy
Stream size : 176 MiB (12%)
Alignment : Split accross interleaves
Interleave, duration : 40 ms (1.00 video frame)
Interleave, preload duratio : 500 ms

Скриншоты




[torrentc.info]_torrent-5340325.torrent
Торрент: Зарегистрирован ·  [ 2017-02-14 20:24 ] ·  8ee1abfa1f95e64786f56bd270dec148f8c4a28e

15 KB

Статус: проверено
Скачан: 0 раз
Размер: 1.46 GB
Оценка: 
(Голосов: 0)
Сказали спасибо: 0  Спасибо
Похожие темы
[Профиль]    [ЛС]
Показать сообщения:    
Ответить на тему

Текущее время: Сегодня 09:19

Часовой пояс: GMT + 7



Вы не можете начинать темы
Вы не можете отвечать на сообщения
Вы не можете редактировать свои сообщения
Вы не можете удалять свои сообщения
Вы не можете голосовать в опросах
Вы не можете прикреплять файлы к сообщениям
Вы можете скачивать файлы