Дорога к морю (Ирина Поплавская) [1965, лирическая комедия, экранизация, SATRip]

Ответить на тему
Статистика раздачи [Обновить пиров]
Размер:  743 MB   |    Зарегистрирован:  1 год 9 месяцев   |    Скачан:  0 раз

Полного источника не было: Никогда

 
   
 
 
 
Автор Сообщение

torrentc.info

Создавать темы 14-Фев-2017 20:25

[Цитировать]

Дорога к морю
Год выхода: 1965
Жанр: лирическая комедия, экранизация
Продолжительность: 01:11:25.600 (107140 frames)
Субтитры: нет
Режиссер: Ирина Поплавская
В ролях: Георгий Вицин, Алексей Грибов, Савелий Крамаров, Людмила Крылова, Борис Новиков, Ростислав Плятт, Игорь Пушкарев, Екатерина Савинова, Олег Табаков, Борис Токарев, Светлана Харитонова, Зинаида Славина, Лариса Барабанова, Игорь Меркулов, Владимир Седов
Описание: Сестры-близнецы Ася и Славка мечтают поступить в мореходное училище. После первого отказа девушки едут в Забайкалье, устраиваются на работу в зверосовхоз, обретают настоящих друзей, влюбляются, переживают всевозможные приключения и по-прежнему мечтают о море.
Качество: SATRip
Формат файла: AVI
Видео кодек: XviD
Аудио кодек: МР3
Видео: 624x480 (1.30:1), 25 fps, XviD build 73 ~1316 kbps avg, 0.18 bit/pixel
Аудио: 48 kHz, MPEG Layer 3, 2 ch, ~128.00 kbps avg

Скриншоты

Медиаинфо

F:\004 Мои раздачи\Дорога к морю 745\doroga_k_moru_745_[torrentc]_by_bm11.avi
General
Complete name : F:\004 Мои раздачи\Дорога к морю 745\doroga_k_moru_745_[torrentc]_by_bm11.avi
Format : AVI
Format/Info : Audio Video Interleave
File size : 743 MiB
Duration : 1h 11mn
Overall bit rate : 1 454 Kbps
Director : bm11
Writing application : VirtualDubMod 1.5.10.3 | www.virtualdub-fr.org || (build 2550/release)
Video
Format : MPEG-4 Visual
Format profile : Streaming Video@L1
Format settings, BVOP : Yes
Format settings, QPel : No
Format settings, GMC : No warppoints
Format settings, Matrix : Custom
Codec ID : XVID
Codec ID/Hint : XviD
Duration : 1h 11mn
Bit rate : 1 316 Kbps
Width : 624 pixels
Height : 480 pixels
Display aspect ratio : 1.300
Frame rate : 25.000 fps
Resolution : 24 bits
Colorimetry : 4:2:0
Scan type : Progressive
Bits/(Pixel*Frame) : 0.176
Stream size : 672 MiB (91%)
Writing library : XviD 73
Audio
Format : MPEG Audio
Format version : Version 1
Format profile : Layer 3
Codec ID : 55
Codec ID/Hint : MP3
Duration : 1h 11mn
Bit rate mode : Constant
Bit rate : 128 Kbps
Minimum bit rate : 128 Kbps
Channel(s) : 2 channels
Sampling rate : 48.0 KHz
Resolution : 16 bits
Stream size : 65.4 MiB (9%)
Alignment : Aligned on interleaves
Interleave, duration : 40 ms (1.00 video frame)
Interleave, preload duration : 504 ms
Writing library : LAME3.99r
Encoding settings : CBR

Источник: Torrentc.org

[url=viewtopic.php?t=4817720]http://Torrentc.org/forum/viewtopic.php?t=4817720[/url]


[torrentc.info]_torrent-5338526.torrent
Торрент: Зарегистрирован ·  [ 2017-02-14 20:24 ] ·  920ed32fca3e5b29ba0773f723b69b2ae679c1f1

15 KB

Статус: проверено
Скачан: 0 раз
Размер: 743 MB
Оценка: 
(Голосов: 0)
Сказали спасибо: 0  Спасибо
Похожие темы
[Профиль]    [ЛС]
Показать сообщения:    
Ответить на тему

Текущее время: Сегодня 15:46

Часовой пояс: GMT + 7



Вы не можете начинать темы
Вы не можете отвечать на сообщения
Вы не можете редактировать свои сообщения
Вы не можете удалять свои сообщения
Вы не можете голосовать в опросах
Вы не можете прикреплять файлы к сообщениям
Вы можете скачивать файлы