Дорога к морю (Ирина Поплавская) [1965, лирическая комедия, экранизация, SATRip]

Ответить на тему
Статистика раздачи [Обновить пиров]
Размер:  1.09 GB   |    Зарегистрирован:  1 год 9 месяцев   |    Скачан:  0 раз

Полного источника не было: Никогда

 
   
 
 
 
Автор Сообщение

torrentc.info

Создавать темы 14-Фев-2017 20:25

[Цитировать]

Дорога к морю
Год выхода: 1965
Жанр: лирическая комедия, экранизация
Продолжительность: 01:11:25.600 (107140 frames)
Субтитры: нет
Режиссер: Ирина Поплавская
В ролях: Георгий Вицин, Алексей Грибов, Савелий Крамаров, Людмила Крылова, Борис Новиков, Ростислав Плятт, Игорь Пушкарев, Екатерина Савинова, Олег Табаков, Борис Токарев, Светлана Харитонова, Зинаида Славина, Лариса Барабанова, Игорь Меркулов, Владимир Седов
Описание: Сестры-близнецы Ася и Славка мечтают поступить в мореходное училище. После первого отказа девушки едут в Забайкалье, устраиваются на работу в зверосовхоз, обретают настоящих друзей, влюбляются, переживают всевозможные приключения и по-прежнему мечтают о море.
Качество: SATRip
Формат файла: AVI
Видео кодек: XviD
Аудио кодек: АС3
Видео: 688x528 (1.30:1), 25 fps, XviD build 73 ~1985 kbps avg, 0.22 bit/pixel
Аудио: 48 kHz, AC3 Dolby Digital, 2/0 (L,R) ch, ~192.00 kbps avg

Скриншоты

Медиаинфо

F:\004 Мои раздачи\Дорога к морю 1,09\doroga_k_moru_1.09_[torrentc]_by_bm11.avi
General
Complete name : F:\004 Мои раздачи\Дорога к морю 1,09\doroga_k_moru_1.09_[torrentc]_by_bm11.avi
Format : AVI
Format/Info : Audio Video Interleave
File size : 1.09 GiB
Duration : 1h 11mn
Overall bit rate : 2 188 Kbps
Director : bm11
Writing application : VirtualDubMod 1.5.10.3 | www.virtualdub-fr.org || (build 2550/release)
Video
Format : MPEG-4 Visual
Format profile : Streaming Video@L1
Format settings, BVOP : Yes
Format settings, QPel : No
Format settings, GMC : No warppoints
Format settings, Matrix : Custom
Codec ID : XVID
Codec ID/Hint : XviD
Duration : 1h 11mn
Bit rate : 1 986 Kbps
Width : 688 pixels
Height : 528 pixels
Display aspect ratio : 4/3
Frame rate : 25.000 fps
Resolution : 24 bits
Colorimetry : 4:2:0
Scan type : Progressive
Bits/(Pixel*Frame) : 0.219
Stream size : 1 015 MiB (91%)
Writing library : XviD 73
Audio
Format : AC-3
Format/Info : Audio Coding 3
Codec ID : 2000
Duration : 1h 11mn
Bit rate mode : Constant
Bit rate : 192 Kbps
Channel(s) : 2 channels
Channel positions : L R
Sampling rate : 48.0 KHz
Stream size : 98.1 MiB (9%)
Alignment : Split accross interleaves
Interleave, duration : 40 ms (1.00 video frame)
Interleave, preload duration : 500 ms

Источник: Torrentc.org

[url=viewtopic.php?t=4817720]http://Torrentc.org/forum/viewtopic.php?t=4817720[/url]

Источник: Torrentc.org

[url=viewtopic.php?t=1753442]http://Torrentc.org/forum/viewtopic.php?t=1753442[/url]
[url=viewtopic.php?t=2163267]http://Torrentc.org/forum/viewtopic.php?t=2163267[/url]
[url=viewtopic.php?t=900149]http://Torrentc.org/forum/viewtopic.php?t=900149[/url]


[torrentc.info]_torrent-5338522.torrent
Торрент: Зарегистрирован ·  [ 2017-02-14 20:24 ] ·  53f372c92ab3a74760645741e5d492d2eb2ea134

11 KB

Статус: проверено
Скачан: 0 раз
Размер: 1.09 GB
Оценка: 
(Голосов: 0)
Сказали спасибо: 0  Спасибо
Похожие темы
[Профиль]    [ЛС]
Показать сообщения:    
Ответить на тему

Текущее время: Сегодня 17:06

Часовой пояс: GMT + 7



Вы не можете начинать темы
Вы не можете отвечать на сообщения
Вы не можете редактировать свои сообщения
Вы не можете удалять свои сообщения
Вы не можете голосовать в опросах
Вы не можете прикреплять файлы к сообщениям
Вы можете скачивать файлы