Караул (Александр Рогожкин) [1989, драма, DVDRip]

Ответить на тему
Статистика раздачи [Обновить пиров]
Размер:  745 MB   |    Зарегистрирован:  1 год 9 месяцев   |    Скачан:  0 раз

Полного источника не было: Никогда

 
   
 
 
 
Автор Сообщение

torrentc.info

Создавать темы 14-Фев-2017 20:25

[Цитировать]

Караул Жанр: драма
Год выхода: 1989
Продолжительность: 01:36:46
Режиссёр: Александр Рогожкин
В ролях: Алексей Булдаков, Сергей Куприянов, Алексей Полуян, Александр Смирнов, Тарас Денисенко, Василий Домрачев, Андрей Зерцалов, Дмитрий Иосифов, Валерий Кравченко, Алексей Зайцев, Ринат Ибрагимов, Мария Белкина, Павел Корнаков, Никита Михайловский, Владимир Юрьев, Михаил Кирилюк, Иван Лощилин
Описание: Солдаты внутренних войск охраняют эшелоны с заключенными, которых везут к месту назначения. Гнетущая атмосфера, обостренная общением с "зэками", заставляет солдат следовать лагерным законам.
Доп. информация: Сценарий фильма построен на реальных событиях, которые разворачивались в Ленинграде в феврале 1987 года.

Рип: waarheid
Сэмпл:

Качество видео: DVDRip [Источник: Torrentc.org [url=viewtopic.php?t=759250]DVD5[/url]]
Формат файла: AVI
Видео: 624x464 (1.34:1), 25 fps, XviD build 73 ~938 kbps avg, 0.13 bit/pixel
Аудио: 48 kHz, MPEG Layer 3, 2 ch, ~128.00 kbps avg

MediaInfo

Общее
Полное имя : Караул.1989_DVDRip.745MB_by_waarheid.avi
Формат файла : AVI
Формат файла/Информация : Audio Video Interleave
Размер файла : 745 Мбайт
Продолжительность : 1 ч. 36 м.
Общий поток : 1077 Кбит/сек
Программа кодирования : VirtualDubMod 1.5.10.3 | www.virtualdub-fr.org || (build 2550/release)
Видео
Идентификатор : 0
Формат файла : MPEG-4 Visual
Профиль формата : Advanced Simple@L5
Параметр BVOP формата : 1
Параметр QPel формата : Нет
Параметр GMC формата : Без точки перехода
Параметр матрицы формата : Выборочная
Идентификатор кодека : XVID
Идентификатор кодека/Подсказка : XviD
Продолжительность : 1 ч. 36 м.
Битрейт : 939 Кбит/сек
Ширина : 624 пикселя
Высота : 464 пикселя
Соотношение сторон : 4:3
Частота кадров : 25,000 кадров/сек
Цветовое пространство : YUV
Субдискретизация насыщенности : 4:2:0
Битовая глубина : 8 бит
Тип развёртки : Прогрессивная
Метод сжатия : С потерями
Бит/(Пиксели*Кадры) : 0.130
Размер потока : 650 Мбайт (87%)
Библиотека кодирования : XviD 73
Аудио
Идентификатор : 1
Формат файла : MPEG Audio
Версия формата : Version 1
Профиль формата : Layer 3
Идентификатор кодека : 55
Идентификатор кодека/Подсказка : MP3
Продолжительность : 1 ч. 36 м.
Вид битрейта : Постоянный
Битрейт : 128 Кбит/сек
Каналы : 2 канала
Частота : 48,0 КГц
Метод сжатия : С потерями
Размер потока : 88,6 Мбайт (12%)
Выравнивание : Соединение по промежуткам
Продолжительность промежутка : 40 мс. (1,00 видеокадр)
Время предзагрузки промежутка : 504 мс.
Библиотека кодирования : LAME3.99r
Настройки программы : -m s -V 4 -q 2 -lowpass 17 -b 128

Скриншот c названием фильма

Скриншоты

Источник: Torrentc.org

Источник: Torrentc.org с [url=viewtopic.php?t=186403]http://Torrentc.org/forum/viewtopic.php?t=186403[/url]


[torrentc.info]_torrent-5336734.torrent
Торрент: Зарегистрирован ·  [ 2017-02-14 20:24 ] ·  34bfcec7a53b88d43779f6552101d25bc1fa159e

15 KB

Статус: проверено
Скачан: 0 раз
Размер: 745 MB
Оценка: 
(Голосов: 0)
Сказали спасибо: 0  Спасибо
Похожие темы
[Профиль]    [ЛС]
Показать сообщения:    
Ответить на тему

Текущее время: Сегодня 15:49

Часовой пояс: GMT + 7



Вы не можете начинать темы
Вы не можете отвечать на сообщения
Вы не можете редактировать свои сообщения
Вы не можете удалять свои сообщения
Вы не можете голосовать в опросах
Вы не можете прикреплять файлы к сообщениям
Вы можете скачивать файлы