Спортлото-82 (Леонид Гайдай) [1982, комедия, приключения, WEB-DL] [Широкоэкранная версия]

Ответить на тему
Статистика раздачи [Обновить пиров]
Размер:  1.1 GB   |    Зарегистрирован:  1 год 9 месяцев   |    Скачан:  1 раз

Полного источника не было: 6 месяцев 25 дней

 
   
 
 
 
Автор Сообщение

torrentc.info

Создавать темы 14-Фев-2017 20:25

[Цитировать]

Спортлото-82
Жанр: комедия, приключения
Год выхода: 1982
Продолжительность: 01:29:10
Режиссёр: Леонид Гайдай
В ролях: Альгис Арлаускас, Светлана Аманова, Михаил Пуговкин, Михаил Кокшенов, Денис Кмит, Нина Гребешкова, Андрей Толшин, Борислав Брондуков, Луиза Мосендз, Сергей Филиппов...
Описание: На один из билетов «Спортлото» выпадает крупный выигрыш. Однако билет оказывается потерянным. В поисках его герои попадают во множество занятных переделок, над которыми зритель веселится от души…
Доп. информация: Видео скачано с ivi.
Семпл: http://sendfile.su/1294175
Качество видео: WEB-DL
Формат файла: MP4
Видео: 720x304 (2.35:1) @ 714x304, 25.000 fps, AVC, ~1700 Kbps, 0.311 bits/pixel
Аудио: Russian, 44.1 KHz, AAC LC, 2 ch, 107 Kbps
[img]https://rating.kinopoisk.ru/43949.gif[/img]

Источник: Torrentc.org

[url=viewtopic.php?t=4682780]http://Torrentc.org/forum/viewtopic.php?t=4682780[/url] апскейл, апконверт, не обрезаны черные поля, анаморфное видео AVI, не вписывается в стандарт 1.35Gb-1.48Gb. При наличии Источник: Torrentc.orgа в подобной раздаче нет смысла.

MediaInfo

General
Complete name : C:\Спортлото-82.mp4
Format : MPEG-4
Format profile : Base Media
Codec ID : isom (isom/iso2/avc1/mp41)
File size : 1.10 GiB
Duration : 1h 29mn
Overall bit rate mode : Variable
Overall bit rate : 1 759 Kbps
Encoded date : UTC 2011-09-28 10:21:20
Tagged date : UTC 2011-09-28 10:21:20
Writing application : Lavf53.32.100
Video
ID : 1
Format : AVC
Format/Info : Advanced Video Codec
Format profile : Main@L3
Format settings, CABAC : Yes
Format settings, ReFrames : 4 frames
Codec ID : avc1
Codec ID/Info : Advanced Video Coding
Duration : 1h 29mn
Bit rate : 1 700 Kbps
Width : 720 pixels
Height : 304 pixels
Display aspect ratio : 2.35:1
Original display aspect rat : 2.35:1
Frame rate mode : Constant
Frame rate : 25.000 fps
Color space : YUV
Chroma subsampling : 4:2:0
Bit depth : 8 bits
Scan type : Progressive
Bits/(Pixel*Frame) : 0.311
Stream size : 1.03 GiB (94%)
Writing library : x264 core 120
Encoding settings : cabac=1 / ref=2 / deblock=1:0:0 / analyse=0x1:0x131 / me=umh / subme=6 / psy=0 / mixed_ref=0 / me_range=16 / chroma_me=1 / trellis=0 / 8x8dct=0 / cqm=0 / deadzone=21,11 / fast_pskip=0 / chroma_qp_offset=0 / threads=1 / sliced_threads=0 / nr=0 / decimate=1 / interlaced=0 / bluray_compat=0 / constrained_intra=0 / bframes=2 / b_pyramid=2 / b_adapt=1 / b_bias=0 / direct=3 / weightb=1 / open_gop=0 / weightp=2 / keyint=25 / keyint_min=2 / scenecut=40 / intra_refresh=0 / rc_lookahead=25 / rc=2pass / mbtree=0 / bitrate=1700 / ratetol=1.0 / qcomp=0.60 / qpmin=7 / qpmax=51 / qpstep=4 / cplxblur=20.0 / qblur=0.5 / vbv_maxrate=1700 / vbv_bufsize=512 / nal_hrd=none / ip_ratio=1.40 / pb_ratio=1.30 / aq=1:1.00
Language : Russian
Encoded date : UTC 2011-09-28 10:21:20
Tagged date : UTC 2013-01-06 05:18:33
Audio
ID : 2
Format : AAC
Format/Info : Advanced Audio Codec
Format profile : LC
Codec ID : 40
Duration : 1h 29mn
Bit rate mode : Variable
Bit rate : 107 Kbps
Maximum bit rate : 128 Kbps
Channel(s) : 2 channels
Channel positions : Front: L R
Sampling rate : 44.1 KHz
Frame rate : 43.066 fps (1024 spf)
Compression mode : Lossy
Stream size : 68.3 MiB (6%)
Language : Russian
Default : Yes
Alternate group : 1
Encoded date : UTC 2011-09-28 10:21:20
Tagged date : UTC 2013-01-06 05:18:33

Скриншоты



[torrentc.info]_torrent-5332385.torrent
Торрент: Зарегистрирован ·  [ 2017-02-14 20:24 ] ·  53da44e54166b6618ead47f42bf4972e6174f735

11 KB

Статус: проверено
Скачан: 1 раз
Размер: 1.1 GB
Оценка: 
(Голосов: 0)
Сказали спасибо: 2  Спасибо   (список)
Похожие темы
[Профиль]    [ЛС]
Показать сообщения:    
Ответить на тему

Текущее время: Сегодня 17:34

Часовой пояс: GMT + 7



Вы не можете начинать темы
Вы не можете отвечать на сообщения
Вы не можете редактировать свои сообщения
Вы не можете удалять свои сообщения
Вы не можете голосовать в опросах
Вы не можете прикреплять файлы к сообщениям
Вы можете скачивать файлы