Александр Невский (Сергей Эйзенштейн, Дмитрий Васильев) [1938, исторический, WEB-DLRip-AVC]

Ответить на тему
Статистика раздачи [Обновить пиров]
Размер:  2.84 GB   |    Зарегистрирован:  1 год 9 месяцев   |    Скачан:  0 раз

Полного источника не было: Никогда

 
   
 
 
 
Автор Сообщение

torrentc.info

Создавать темы 14-Фев-2017 20:25

[Цитировать]

Александр Невский- Жанр: исторический
Год выхода: 1938
Продолжительность: 01:43:24
Cубтитры: русские-Режиссёры: Сергей Эйзенштейн, Дмитрий Васильев-В ролях:
Николай Черкасов, Андрей Абрикосов, Дмитрий Орлов, Николай Охлопков, Варвара Массалитинова, Владимир Ершов, Сергей Блинников, Иван Лагутин, Лев Фенин, Наум Рогожин, Василий Новиков, Вера Ивашова, Александра Данилова, Николай Арский
Описание:
На западные рубежи Руси наступают войска Тевтонского Ордена. Они захватывают Псков, жгут дома и убивают местных жителей. Рыцари делят ещё не завоеванные русские земли, присваивая себе титулы князей и надеясь на поддержку Папы Римского. Новгородский люд на вече решает собирать дружину и звать на командование ей опытного полководца князя Александра Ярославича Невского. Двое богатырей - Гаврила Алексич и Василий Буслаев вступают в княжескую дружину. Войска сходятся к берегам замёрзшего Чудского озера.-Сэмпл | Кинопоиск-Качество видео: WEB-DLRip-AVC
Формат файла: MKV
Видео: x264 (High@L4.1); 888x648, Display aspect ratio 1.370:1, 25.000 fps, 3733 Kbps
Аудио: AC-3; 16 bits 48 Khz; 2.0ch 192 Kbps; CBR
Формат файла субтитров: softsub (SRT)

Источник: Torrentc.org

* WEB-DL 1080p, мосфильмовская реставрация. Полностью снято мерцание и дрожание пленки (видеоряд стабилизирован). Кадрирование несколько иное, чем на DVD, в целом наполнение больше. Видеоряд примерно на 900 кадров короче издания Критериона. Вырезанных фрагментов нет, но на стыке некоторых сцен отсутствуют по 1-3 кадра. Чем это объяснить, не знаю. В трансфере Критериона эти кадры в более-менее приемлемом состоянии и в самой вебке восстановлены гораздо худшие, склеенные кадры.CRITERION DVD ------------------- RUSCICO DVD ------------------- WEB-DL 1080p

MediaInfo

avs [info]: 888x648p 1:1 @ 25/1 fps (cfr)
x264 [info]: using SAR=1/1
x264 [info]: profile High, level 4.1
x264 [info]: frame I:919 Avg QP:18.15 size: 63992
x264 [info]: frame P:35993 Avg QP:19.55 size: 32276
x264 [info]: frame B:118195 Avg QP:21.13 size: 14165
x264 [info]: consecutive B-frames: 1.6% 2.1% 5.7% 47.7% 13.2% 25.1% 1.2% 1.6% 0.1% 0.0% 0.0% 0.3% 0.2% 1.2% 0.2%
x264 [info]: mb I I16..4: 0.8% 86.8% 12.4%
x264 [info]: mb P I16..4: 0.1% 17.8% 2.4% P16..4: 32.1% 30.5% 15.1% 0.0% 0.0% skip: 2.0%
x264 [info]: mb B I16..4: 0.0% 2.6% 0.6% B16..8: 36.6% 16.7% 6.0% direct:10.0% skip:27.6% L0:44.1% L1:42.4% BI:13.4%
x264 [info]: 8x8 transform intra:85.7% inter:65.2%
x264 [info]: direct mvs spatial:100.0% temporal:0.0%
x264 [info]: coded y,uvDC,uvAC intra: 97.1% 0.0% 0.0% inter: 42.5% 0.0% 0.0%
x264 [info]: i16 v,h,dc,p: 16% 12% 4% 68%
x264 [info]: i8 v,h,dc,ddl,ddr,vr,hd,vl,hu: 12% 8% 5% 9% 15% 15% 13% 12% 11%
x264 [info]: i4 v,h,dc,ddl,ddr,vr,hd,vl,hu: 12% 6% 2% 8% 16% 18% 14% 13% 11%
x264 [info]: i8c dc,h,v,p: 100% 0% 0% 0%
x264 [info]: Weighted P-Frames: Y:25.2% UV:0.0%
x264 [info]: ref P L0: 40.0% 12.6% 15.0% 6.5% 5.2% 4.0% 3.7% 2.2% 2.1% 1.9% 1.8% 1.6% 1.6% 1.5% 0.4% 0.0%
x264 [info]: ref B L0: 73.7% 8.8% 4.7% 2.7% 2.1% 1.8% 1.6% 1.1% 0.9% 0.9% 0.8% 0.6% 0.3%
x264 [info]: ref B L1: 96.5% 3.5%
x264 [info]: kb/s:3732.59
General
Unique ID : 188617002777513063674354548809565934634 (0x8DE65038D17B60DA96E35CAE515F142A)
Complete name : Александр Невский.1938.WEB-DLRip.mkv
Format : Matroska
Format version : Version 2
File size : 2.84 GiB
Duration : 1h 43mn
Overall bit rate : 3 926 Kbps
Movie name : «Александр Невский»
Encoded date : UTC 2016-12-23 19:29:44
Writing application : mkvmerge v7.8.0 ('River Man') 32bit built on Mar 27 2015 16:18:02
Writing library : libebml v1.3.1 + libmatroska v1.4.2
Comment : WEB-DLRip-AVC
Originally released : December 24th 2016
Encoded by : george$t®
Video
ID : 1
Format : AVC
Format/Info : Advanced Video Codec
Format profile : High@L4.1
Format settings, CABAC : Yes
Format settings, ReFrames : 14 frames
Codec ID : V_MPEG4/ISO/AVC
Duration : 1h 43mn
Bit rate : 3 656 Kbps
Width : 888 pixels
Height : 648 pixels
Display aspect ratio : 1.370
Frame rate mode : Constant
Frame rate : 25.000 fps
Color space : YUV
Chroma subsampling : 4:2:0
Bit depth : 8 bits
Scan type : Progressive
Bits/(Pixel*Frame) : 0.254
Stream size : 2.64 GiB (93%)
Title : Александр Невский.1938
Writing library : x264 core 148 r2721kMod 72d53ab
Encoding settings : cabac=1 / ref=14 / deblock=1:-2:0 / analyse=0x3:0x113 / me=umh / subme=10 / psy=1 / fade_compensate=0.00 / psy_rd=1.03:0.00 / mixed_ref=1 / me_range=32 / chroma_me=1 / trellis=2 / 8x8dct=1 / cqm=0 / deadzone=21,11 / fast_pskip=1 / chroma_qp_offset=-2 / threads=12 / lookahead_threads=3 / sliced_threads=0 / nr=0 / decimate=1 / interlaced=0 / bluray_compat=0 / constrained_intra=0 / fgo=0 / bframes=14 / b_pyramid=2 / b_adapt=2 / b_bias=0 / direct=3 / weightb=1 / open_gop=0 / weightp=2 / keyint=250 / keyint_min=25 / scenecut=40 / intra_refresh=0 / rc_lookahead=60 / rc=crf / mbtree=0 / crf=18.4000 / qcomp=0.65 / qpmin=0 / qpmax=69 / qpstep=4 / vbv_maxrate=62500 / vbv_bufsize=78125 / crf_max=0.0 / nal_hrd=none / filler=0 / ip_ratio=1.35 / pb_ratio=1.25 / aq=3:0.85
Language : Russian
Default : Yes
Forced : No
Color primaries : BT.709
Transfer characteristics : BT.709
Matrix coefficients : BT.709
Color range : Limited
Audio
ID : 2
Format : AC-3
Format/Info : Audio Coding 3
Mode extension : CM (complete main)
Format settings, Endianness : Big
Codec ID : A_AC3
Duration : 1h 43mn
Bit rate mode : Constant
Bit rate : 192 Kbps
Channel(s) : 2 channels
Channel positions : Front: L R
Sampling rate : 48.0 KHz
Bit depth : 16 bits
Compression mode : Lossy
Stream size : 142 MiB (5%)
Title : AC-3; 16 bits 48 Khz; 2.0ch 192 Kbps; CBR
Language : Russian
Default : Yes
Forced : No
Text
ID : 3
Format : UTF-8
Codec ID : S_TEXT/UTF8
Codec ID/Info : UTF-8 Plain Text
Title : Субтитры русские
Language : Russian
Default : No
Forced : No
Menu
00:00:00.000 : ru:Титры / Credits
00:01:56.880 : ru:13 век / The 13th century
00:03:23.960 : ru:Плещеево озеро / The Plescheevo Lake
00:11:07.640 : ru:Вольный град Новгород / The free city of Novgorod
00:16:15.120 : ru:Вече / Debate in the town square
00:20:59.840 : ru:Псков / Pskov
00:28:58.000 : ru:Переяславль / Peryaslavl
00:33:24.320 : ru:Вставайте, люди русские / "Arise, you Russian people"
00:35:40.040 : ru:Новгород / Novgorod
00:42:01.800 : ru:На травлю русского зверя / Off to hunt the russian bear
00:45:46.560 : ru:Заяц и лиса / The rabbit and the fox
00:48:40.640 : ru:Чудское озеро / Chudskoye Lake
00:53:02.160 : ru:5 апреля 1242 года / April 5, 1242
00:59:04.480 : ru:Битва / The battle is joined
01:01:46.600 : ru:За Русь / "For Russia!"
01:07:31.440 : ru:Отступление немцев / The German retreat
01:12:50.360 : ru:Князь Александр и Великий Магистр / Prince Alexander vs. the Master
01:14:02.120 : ru:Наша взяла / The German overrun
01:16:52.680 : ru:Гибель Игната / Death of Ignat
01:17:39.280 : ru:Тонкий лед / Thin ice
01:21:22.040 : ru:Факелы в ночи / Women and torches
01:29:22.920 : ru:Псков / Pskov
01:33:41.680 : ru:Суд чинить будем / Court of justice
01:38:00.040 : ru:"Рассуди, князь!" / Alexander the matchmaker
01:41:01.400 : ru:"Гулять будем! " / "And now... let us celebrate"
01:42:04.640 : ru:Эпилог / Epilogue

Скриншоты

vs. dvd (CRITERION):
[url=viewtopic.php?t=480059]http://Torrentc.org/forum/viewtopic.php?t=480059[/url]
vs. dvd (RUSCICO):
[url=viewtopic.php?t=3991810]http://Torrentc.org/forum/viewtopic.php?t=3991810[/url]
vs. DVDRip-avc:
[url=viewtopic.php?t=4747155]http://Torrentc.org/forum/viewtopic.php?t=4747155[/url]


[torrentc.info]_torrent-5330816.torrent
Торрент: Зарегистрирован ·  [ 2017-02-14 20:24 ] ·  9501e964993cfb18f5374095f2740df79af61d3e

15 KB

Статус: проверено
Скачан: 0 раз
Размер: 2.84 GB
Оценка: 
(Голосов: 0)
Сказали спасибо: 0  Спасибо
Похожие темы
[Профиль]    [ЛС]
Показать сообщения:    
Ответить на тему

Текущее время: Сегодня 17:34

Часовой пояс: GMT + 7



Вы не можете начинать темы
Вы не можете отвечать на сообщения
Вы не можете редактировать свои сообщения
Вы не можете удалять свои сообщения
Вы не можете голосовать в опросах
Вы не можете прикреплять файлы к сообщениям
Вы можете скачивать файлы