Волочаевские дни (Георгий Васильев, Сергей Васильев) [1937, Исторический, военный, драма, SATRip]

Ответить на тему
Статистика раздачи [Обновить пиров]
Размер:  1.45 GB   |    Зарегистрирован:  1 год 9 месяцев   |    Скачан:  0 раз

Полного источника не было: Никогда

 
   
 
 
 
Автор Сообщение

torrentc.info

Создавать темы 14-Фев-2017 20:25

[Цитировать]

Волочаевские дни
Жанр: Исторический, военный, драма
Год выхода: 1937
Продолжительность: 01:47:13
Режиссёр: Георгий Васильев, Сергей Васильев
В ролях: Варвара Мясникова, Николай Дорохин, Лев Свердлин, Юрий Лавров, Василий Гущинский, Борис Блинов, Владимир Лукин, Иван Добролюбов, Александр Морозов, Андрей Апсолон, Федор Чагин, Алексей Матов, Борис Хайдаров, Борис Чирков, Сергей Филиппов
Описание: 1918 год. На рейде Владивостока появляется японская эскадра. Спровоцировав убийство, японское командование под предлогом защиты соотечественников высаживает на Дальнем Востоке десант…
Доп. информация: Неремастированная версия. Недокроп постоянно плавающий в течение всего фильма.
Семпл: http://multi-up.com/1131917
Качество видео: SATRip
Формат файла: AVI
Видео: MPEG4, XviD, 640x480 (4:3), 25.000 fps, 1 738 Kbps (0.226 bit/pixel)
Аудио: AC-3, 48.0 KHz, 2 ch, 192 Kbps, CBR

MediaInfo

Общее
Полное имя : M:\Волочаевские дни.avi
Формат файла : AVI
Формат файла/Информация : Audio Video Interleave
Размер файла : 1,45 Гбайт
Продолжительность : 1 ч. 47 м.
Общий поток : 1940 Кбит/сек
Название фильма : Волочаевские дни (1937)
Программа кодирования : VirtualDubMod 1.5.10.2 (build 2540/release)
Авторское право : miha2154
Видео
Идентификатор : 0
Формат файла : MPEG-4 Visual
Профиль формата : Advanced Simple@L5
Параметр BVOP формата : 1
Параметр QPel формата : Нет
Параметр GMC формата : Без точки перехода
Параметр матрицы формата : Выборочная
Идентификатор кодека : XVID
Идентификатор кодека/Подсказка : XviD
Продолжительность : 1 ч. 47 м.
Битрейт : 1738 Кбит/сек
Ширина : 640 пикселей
Высота : 480 пикселей
Соотношение сторон : 4:3
Частота кадров : 25,000 кадров/сек
Цветовое пространство : YUV
Субдискретизация насыщенности : 4:2:0
Битовая глубина : 8 бит
Тип развёртки : Прогрессивная
Метод сжатия : С потерями
Бит/(Пиксели*Кадры) : 0.226
Размер потока : 1,30 Гбайт (90%)
Библиотека кодирования : XviD 65
Аудио
Идентификатор : 1
Формат файла : AC-3
Формат файла/Информация : Audio Coding 3
Расширение режима : CM (complete main)
Параметр Endianness формата : Big
Идентификатор кодека : 2000
Продолжительность : 1 ч. 47 м.
Вид битрейта : Постоянный
Битрейт : 192 Кбит/сек
Каналы : 2 канала
Расположение каналов : Front: L R
Частота : 48,0 КГц
Частота кадров : 31,250 кадров/сек (1536 spf)
Метод сжатия : С потерями
Размер потока : 147 Мбайт (10%)
Выравнивание : Разделение по промежуткам
Продолжительность промежутка : 40 мс. (1,00 видеокадр)
Время предзагрузки промежутка : 500 мс.

Скриншоты




[torrentc.info]_torrent-5329308.torrent
Торрент: Зарегистрирован ·  [ 2017-02-14 20:24 ] ·  fadac17fbff1ef0330cadc104ef4ec1b90da0915

15 KB

Статус: проверено
Скачан: 0 раз
Размер: 1.45 GB
Оценка: 
(Голосов: 0)
Сказали спасибо: 0  Спасибо
Похожие темы
[Профиль]    [ЛС]
Показать сообщения:    
Ответить на тему

Текущее время: Сегодня 17:02

Часовой пояс: GMT + 7



Вы не можете начинать темы
Вы не можете отвечать на сообщения
Вы не можете редактировать свои сообщения
Вы не можете удалять свои сообщения
Вы не можете голосовать в опросах
Вы не можете прикреплять файлы к сообщениям
Вы можете скачивать файлы