Любовь к ближнему (Николай Рашеев) [1988, трагикомедия, SATRip]

Ответить на тему
Статистика раздачи [Обновить пиров]
Размер:  1.35 GB   |    Зарегистрирован:  1 год 10 месяцев   |    Скачан:  1 раз

Полного источника не было: 3 дня

 
   
 
 
 
Автор Сообщение

torrentc.info

Создавать темы 14-Фев-2017 20:25

[Цитировать]

Любовь к ближнему Год выхода: 1988.
Жанр: трагикомедия.
Продолжительность: 01:14:18.
Режиссеры: Николай Рашеев.
В ролях:
Екатерина Васильева, Александр Пашутин, Виктор Павлов, Василий Ливанов, Алексей Жарков, Владимир Сошальский, Виктор Авилов, Михаил Светин, Эрнст Романов, Татьяна Орлова, Владимир Кремена, Богдан Бенюк, Вадим Гемс, Евгений Герчаков, Юрий Дубровин, Александр Жарков, Александр Жарков, Александр Кузнецов, Людмила Лобза, Александр Пятков, Ромуальдас Раманаускас, Гедиминас Гирдвайнис, Валентин Троцюк, Галина Щепетнова.
Описание:
По мотивам пьес Леонида Андреева "Монумент" и "Любовь к ближнему".
Фильм состоит их двух новелл: «Монумент» (в заштатном городишке Коклюшине решили поставить памятник Пушкину. На конкурс были представлены два проекта - скульпторов Пиджакова и Фракова) и «Любовь к ближнему» (на приморском пляже царит небывалое оживление - народ собрался, чтобы посмотреть, как со скалы упадет человек. Но вдруг выясняется, что зрелище не состоится...)

Доп. информация:
Страна: СССР .
Киностудия: Киностудия им. Довженко по заказу Гостелерадио СССР.
Автор сценария: Александр Бородянский.
Оператор: Феликс Гилевич.
Композитор: Георгий Гаранян.
Художник: Алексей Левченко.
Награды и номинации:
• Фильм был отмечен призом за режиссуру фестиваля комедийных фильмов в Габрово (1988).

Еще постеры

Релиз группы:
Рип с [url=viewtopic.php?t=3998108]этой[/url] раздачи.
Большое спасибо [url=profile.php?mode=viewprofile&u=2586482]Cheef mate[/url] за предоставленый материал!!!

Качество: SATRip
Формат файла: AVI
Видео: 720x528 (1.36:1), 25 fps, XviD build 73 ~2400 kbps avg, 0.25 bit/pixel
Аудио: 48 kHz, AC3 Dolby Digital, 2/0 (L,R) ch, ~192 kbps

Отчет Media Info

General
Complete name : Lyubov'.k.blizhnemu.1988.XviD.SATRip.fenixclub_ 1,35.avi
Format : AVI
Format/Info : Audio Video Interleave
File size : 1.35 GiB
Duration : 1h 14mn
Overall bit rate : 2 602 Kbps
Writing application : VirtualDubMod 1.5.10.3 | www.virtualdub-fr.org || (build 2550/release)
Writing library : VirtualDubMod build 2550/release
Video
ID : 0
Format : MPEG-4 Visual
Format profile : Advanced Simple@L5
Format settings, BVOP : 1
Format settings, QPel : No
Format settings, GMC : No warppoints
Format settings, Matrix : Custom
Codec ID : XVID
Codec ID/Hint : XviD
Duration : 1h 14mn
Bit rate : 2 401 Kbps
Width : 720 pixels
Height : 528 pixels
Display aspect ratio : 4:3
Frame rate : 25.000 fps
Color space : YUV
Chroma subsampling : 4:2:0
Bit depth : 8 bits
Scan type : Progressive
Compression mode : Lossy
Bits/(Pixel*Frame) : 0.253
Stream size : 1.25 GiB (92%)
Writing library : XviD 73
Audio
ID : 1
Format : AC-3
Format/Info : Audio Coding 3
Mode extension : CM (complete main)
Format settings, Endianness : Big
Codec ID : 2000
Duration : 1h 14mn
Bit rate mode : Constant
Bit rate : 192 Kbps
Channel(s) : 2 channels
Channel positions : Front: L R
Sampling rate : 48.0 KHz
Frame rate : 31.250 fps (1536 spf)
Compression mode : Lossy
Stream size : 102 MiB (7%)
Alignment : Split accross interleaves
Interleave, duration : 40 ms (1.00 video frame)
Interleave, preload duratio : 500 ms.

Скриншоты


Альтернативный хост




[torrentc.info]_torrent-5328262.torrent
Торрент: Зарегистрирован ·  [ 2017-02-14 20:24 ] ·  900a28b8dfd3a0e202a7b66a6ac3a08db1b8e777

14 KB

Статус: проверено
Скачан: 1 раз
Размер: 1.35 GB
Оценка: 
(Голосов: 0)
Сказали спасибо: 0  Спасибо
Похожие темы
[Профиль]    [ЛС]
Показать сообщения:    
Ответить на тему

Текущее время: Сегодня 23:42

Часовой пояс: GMT + 7



Вы не можете начинать темы
Вы не можете отвечать на сообщения
Вы не можете редактировать свои сообщения
Вы не можете удалять свои сообщения
Вы не можете голосовать в опросах
Вы не можете прикреплять файлы к сообщениям
Вы можете скачивать файлы