Чемпионы: Быстрее. Выше. Сильнее (Артем Аксененко) [2016, Россия, спорт, драма, HDTVRip] [Open Matte]

Ответить на тему
Статистика раздачи [Обновить пиров]
Размер:  1.47 GB   |    Зарегистрирован:  1 год 9 месяцев   |    Скачан:  0 раз

Полного источника не было: Никогда

 
   
 
 
 
Автор Сообщение

torrentc.info

Создавать темы 14-Фев-2017 20:48

[Цитировать]

Чемпионы: Быстрее. Выше. Сильнее / Open Matte
-[url=viewtopic.php?t=5271848]HDTV-1080i[/url] | HDTVRip-Жанр: спорт, драма
Год выхода: 2016
Продолжительность: 01:36:26
Режиссер: Артем Аксененко
В ролях: Сергей Бондарчук, Евгений Пронин, Кристина Асмус, Егор Корешков, Александр Робак, Дарья Екамасова, Сергей Сосновский, Виктор Хориняк, Джемал Тетруашвили, Кристина Шаповалова
Описание: В мире их называли «Асфальтоукладчик», «Королева брусьев» и «Русская торпеда». Борец Александр Карелин, гимнастка Светлана Хоркина и пловец Александр Попов - реальные истории трех легендарных российских спортсменов, на общем счету которых 9 золотых олимпийских медалей и больше тысячи побед! У каждого был свой путь, своя уникальная драматическая история восхождения. Три яркие новеллы, основанные на реальных событиях, расскажут о том, что осталось за кадром спортивной хроники и каким был путь к высшему спортивному достижению - Олимпийский чемпион. Они стали легендами мирового спорта и дали возможность всей стране сказать «Мы победили!».
Доп. информация: Различия BD и HDTV - разное наполнение кадра - 16:9 (1.78:1) ->
[url=viewtopic.php?t=4471600]Фильмы в Fullscreen (4:3) и Open Matte (16:9) форматах[/url]
Сэмпл: http://multi-up.com/1139925
Качество видео: HDTVRip [url=viewtopic.php?t=5271848]Источник: Torrentc.org[/url]
Формат файла: AVI
Видео: XviD / 1973 kbps / 704x384 / 25.000 fps
Аудио: AC3 / 2 ch / 192 kbps / 48 kHz

MediaInfo

General
Complete name : J:\Torrents\Готовые релизы\Чемпионы - Быстрее. Выше. Сильнее (2016) HDTVRip [Open Matte].avi
Format : AVI
Format/Info : Audio Video Interleave
File size : 1.47 GiB
Duration : 1h 36mn
Overall bit rate : 2 176 Kbps
Video
ID : 0
Format : MPEG-4 Visual
Format profile : Advanced Simple@L5
Format settings, BVOP : 2
Format settings, QPel : No
Format settings, GMC : No warppoints
Format settings, Matrix : Default (MPEG)
Codec ID : XVID
Codec ID/Hint : XviD
Duration : 1h 36mn
Bit rate : 1 973 Kbps
Width : 704 pixels
Height : 384 pixels
Display aspect ratio : 1.85:1
Frame rate : 25.000 fps
Color space : YUV
Chroma subsampling : 4:2:0
Bit depth : 8 bits
Scan type : Progressive
Compression mode : Lossy
Bits/(Pixel*Frame) : 0.292
Stream size : 1.33 GiB (91%)
Writing library : XviD 64
Audio
ID : 1
Format : AC-3
Format/Info : Audio Coding 3
Mode extension : CM (complete main)
Format settings, Endianness : Big
Codec ID : 2000
Duration : 1h 36mn
Bit rate mode : Constant
Bit rate : 192 Kbps
Channel(s) : 2 channels
Channel positions : Front: L R
Sampling rate : 48.0 KHz
Frame rate : 31.250 fps (1536 spf)
Compression mode : Lossy
Stream size : 132 MiB (9%)
Alignment : Aligned on interleaves
Interleave, duration : 32 ms (0.80 video frame)
Interleave, preload duratio : 32 ms

Скриншот c названием фильма

Скриншоты



[torrentc.info]_torrent-5355010.torrent
Торрент: Зарегистрирован ·  [ 2017-02-14 20:48 ] ·  e43622e1eaddf3742e7dc2c534cbf9a48bfb110b

15 KB

Статус: проверено
Скачан: 0 раз
Размер: 1.47 GB
Оценка: 
(Голосов: 0)
Сказали спасибо: 0  Спасибо
Похожие темы
[Профиль]    [ЛС]
Показать сообщения:    
Ответить на тему

Текущее время: Сегодня 09:05

Часовой пояс: GMT + 7



Вы не можете начинать темы
Вы не можете отвечать на сообщения
Вы не можете редактировать свои сообщения
Вы не можете удалять свои сообщения
Вы не можете голосовать в опросах
Вы не можете прикреплять файлы к сообщениям
Вы можете скачивать файлы